Завантажити та скачати торренти українською


Морпіхи / Jarhead (2005) 720p Ukr/Eng | Sub Eng

Нові коментарі

Нова тема   Відповісти
Автор Повідомлення
Anonymous 







2014-06-29 20:40  
Морпіхи / Jarhead (2005) 720p Ukr/Eng | Sub Eng



Українізований постер



Жанр: біографічний, драма, військовий
Країна: Німеччина, США



Кінокомпанія: Universal Pictures, Red Wagon Entertainment, Neal Street Productions
Режисер: Сем Мендес / Sam Mendes
Актори: Джейк Джилленгаал / Jake Gyllenhaal, Пітер Сарсґаард / Peter Sarsgaard, Джеймі Фокс / Jamie Foxx, Лукас Блек / Lucas Black, Брайан Джераті / Brian Geraghty, Джейкоб Варґас / Jacob Vargas, Лас Алонсо / Laz Alonso, Івен Джонс / Evan Jones, Кріс Купер / Chris Cooper, Денніс Гейсберт / Dennis Haysbert

Сюжет:
У 1990 р. американські війська висадились в Кувейті - це була найперша іракська кампанія. Для молодих піхотинців вона тривала багато місяців i закінчилась чотирма бойовими днями без жодного пострілу. Ця війна залишилась в житті кожного з них назавжди. Головний герой - хлопець, який думав, що морська піхота врятує його від "нормального" життя.


Рейтинг MPAA: R - особам до 17 років обов'язкова присутність батьків або дорослого опікуна
Вікова категорія: 16+

Тривалість: 02:02:51
Якість: 720p [crf=16.5]
Відео:
кодек:
розмір кадру: 1280x544
бітрейт: 5393 кбіт/с

Аудіо # 1:
мова: українська
переклад: багатоголосий закадровий
кодек: 2.0
бітрейт: 192 кбіт/с
ролі озвучили: Анатолій Пашнін (Джейк Джилленгаал), Олег Стальчук (Джеймі Фокс), Дмитро Терещук і один жіночий голос

Аудіо # 2:
мова: англійська
переклад: оригінал
кодек: 5.1
бітрейт: 1536 кбіт/с

Аудіо # 3:
мова: англійська
переклад: коментарі режисера Сема Мендеса
кодек: 2.0
бітрейт: 192 кбіт/с

Аудіо # 4:
мова: англійська
переклад: коментарі сценариста Вільяма Бройлеса молодшого та автора книги Ентоні Соуффорда
кодек: 2.0
бітрейт: 192 кбіт/с

Субтитри:
мова: англійська
тип: програмні (м'які)
формат: *.srt

Збережено оригінальні розділи, як на Blu-ray.
MediaInfo
Код:
General
Unique ID                                : 230039581859037664167898319100026089915 (0xAD10030C830120BB85710721E23CF1BB)
Complete name                            : Jarhead (2005) [Ukr,Eng sub.Eng] 720p [Hurtom & HDClub].mkv
Format                                   : Matroska
Format version                           : Version 4 / Version 2
File size                                : 6.55 GiB
Duration                                 : 2h 2mn
Overall bit rate                         : 7 630 Kbps
Movie name                               : Морпіхи / Jarhead (2005) 720p [Hurtom & HDClub]
Encoded date                             : UTC 2014-06-29 18:26:21
Writing application                      : mkvmerge v7.0.0 ('Where We Going') 64bit built on Jun  9 2014 15:16:27
Writing library                          : libebml v1.3.0 + libmatroska v1.4.1
DURATION                                 : 02:02:50.560000000
NUMBER_OF_FRAMES                         : 230330
NUMBER_OF_BYTES                          : 176893440
_STATISTICS_WRITING_APP                  : mkvmerge v7.0.0 ('Where We Going') 64bit built on Jun  9 2014 15:16:27
_STATISTICS_WRITING_DATE_UTC             : 2014-06-29 18:26:21
_STATISTICS_TAGS                         : BPS DURATION NUMBER_OF_FRAMES NUMBER_OF_BYTES

Video
ID                                       : 1
Format                                   : AVC
Format/Info                              : Advanced Video Codec
Format profile                           : [email protected]
Format settings, CABAC                   : Yes
Format settings, ReFrames                : 11 frames
Codec ID                                 : V_MPEG4/ISO/AVC
Duration                                 : 2h 2mn
Bit rate                                 : 5 393 Kbps
Width                                    : 1 280 pixels
Height                                   : 544 pixels
Display aspect ratio                     : 2.35:1
Frame rate mode                          : Constant
Frame rate                               : 23.976 fps
Color space                              : YUV
Chroma subsampling                       : 4:2:0
Bit depth                                : 8 bits
Scan type                                : Progressive
Bits/(Pixel*Frame)                       : 0.323
Stream size                              : 4.63 GiB (71%)
Title                                    : Морпіхи / Jarhead / Морпехи (2005) 720p [HDCLUB-jarga]
Writing library                          : core 105 r1732 2b04482
Encoding settings                        : cabac=1 / ref=11 / deblock=1:-3:-3 / analyse=0x3:0x113 / me=umh / subme=10 / psy=1 / psy_rd=0.90:0.05 / mixed_ref=1 / me_range=32 / chroma_me=1 / trellis=2 / 8x8dct=1 / cqm=0 / deadzone=21,11 / fast_pskip=0 / chroma_qp_offset=-3 / threads=3 / sliced_threads=0 / nr=0 / decimate=0 / interlaced=0 / constrained_intra=0 / bframes=10 / b_pyramid=2 / b_adapt=2 / b_bias=0 / direct=1 / weightb=1 / open_gop=0 / weightp=2 / keyint=250 / keyint_min=23 / scenecut=40 / intra_refresh=0 / rc_lookahead=60 / rc=crf / mbtree=0 / crf=16.5 / qcomp=0.60 / qpmin=10 / qpmax=51 / qpstep=4 / vbv_maxrate=50000 / vbv_bufsize=62500 / crf_max=0.0 / ip_ratio=1.40 / pb_ratio=1.30 / aq=1:0.80 / nal_hrd=none
Language                                 : English
Default                                  : Yes
Forced                                   : Yes
DURATION                                 : 02:02:50.572000000
NUMBER_OF_FRAMES                         : 176717
NUMBER_OF_BYTES                          : 5106043842
_STATISTICS_WRITING_APP                  : mkvmerge v7.0.0 ('Where We Going') 64bit built on Jun  9 2014 15:16:27
_STATISTICS_WRITING_DATE_UTC             : 2014-06-29 18:26:21
_STATISTICS_TAGS                         : BPS DURATION NUMBER_OF_FRAMES NUMBER_OF_BYTES

Audio #1
ID                                       : 2
Format                                   : AC-3
Format/Info                              : Audio Coding 3
Mode extension                           : CM (complete main)
Format settings, Endianness              : Big
Codec ID                                 : A_AC3
Duration                                 : 2h 2mn
Bit rate mode                            : Constant
Bit rate                                 : 192 Kbps
Channel(s)                               : 2 channels
Channel positions                        : Front: L R
Sampling rate                            : 48.0 KHz
Bit depth                                : 16 bits
Compression mode                         : Lossy
Stream size                              : 169 MiB (3%)
Title                                    : MVO [Ukraina] 2.0 192 Kbps [Hurtom-karvai0]
Language                                 : Ukrainian
Default                                  : Yes
Forced                                   : Yes

Audio #2
ID                                       : 3
Format                                   :
Format/Info                              : Digital Theater Systems
Mode                                     : 16
Format settings, Endianness              : Big
Codec ID                                 : A_DTS
Duration                                 : 2h 2mn
Bit rate mode                            : Constant
Bit rate                                 : 1 509 Kbps
Channel(s)                               : 6 channels
Channel positions                        : Front: L C R, Side: L R, LFE
Sampling rate                            : 48.0 KHz
Bit depth                                : 24 bits
Compression mode                         : Lossy
Stream size                              : 1.29 GiB (20%)
Title                                    : Original 5.1 1536 Kbps
Language                                 : English
Default                                  : No
Forced                                   : No

Audio #3
ID                                       : 4
Format                                   : AC-3
Format/Info                              : Audio Coding 3
Mode extension                           : CM (complete main)
Format settings, Endianness              : Big
Codec ID                                 : A_AC3
Duration                                 : 2h 2mn
Bit rate mode                            : Constant
Bit rate                                 : 192 Kbps
Channel(s)                               : 2 channels
Channel positions                        : Front: L R
Sampling rate                            : 48.0 KHz
Bit depth                                : 16 bits
Compression mode                         : Lossy
Stream size                              : 169 MiB (3%)
Title                                    : Commentary with director Sam Mendes 2.0 192 Kbps
Language                                 : English
Default                                  : No
Forced                                   : No

Audio #4
ID                                       : 5
Format                                   : AC-3
Format/Info                              : Audio Coding 3
Mode extension                           : CM (complete main)
Format settings, Endianness              : Big
Codec ID                                 : A_AC3
Duration                                 : 2h 2mn
Bit rate mode                            : Constant
Bit rate                                 : 192 Kbps
Channel(s)                               : 2 channels
Channel positions                        : Front: L R
Sampling rate                            : 48.0 KHz
Bit depth                                : 16 bits
Compression mode                         : Lossy
Stream size                              : 169 MiB (3%)
Title                                    : Commentary with screenwriter Wiiliam Broyles, Jr. and author Anthony Swofford 2.0 192 Kbps
Language                                 : English
Default                                  : No
Forced                                   : No

Text
ID                                       : 6
Format                                   : UTF-8
Codec ID                                 : S_TEXT/UTF8
Codec ID/Info                            : UTF-8 Plain Text
Title                                    : Eng full
Language                                 : English
Default                                  : No
Forced                                   : No

Menu
00:00:00.000                             : :Fresh Meat (Main Titles)
00:06:28.513                             : :Do You Have What It Takes?
00:12:34.879                             : :Getting the Fear Out
00:15:50.324                             : :Scout Sniper
00:17:36.597                             : :Operation Desert Shield
00:24:50.322                             : :Crude Politics
00:32:06.007                             : :Freedom of Speech
00:37:58.609                             : :A Small Demonstration
00:42:43.519                             : :Messages From Home
00:53:10.228                             : :No Standard Solution
00:57:44.878                             : :Happy Holidays
01:03:47.823                             : :First Contact
01:09:28.497                             : :Operation Desert Storm
01:17:52.042                             : :Commence Combat
01:22:53.385                             : :Hell of a Day
01:28:26.259                             : :I Love This Job
01:36:20.274                             : :Taking Orders
01:44:00.651                             : :My War
01:49:14.839                             : :Welcome Home
01:53:53.034                             : :End Titles




Джерела та подяки: &
ріп відео, оригінальні звук та субтитри - jarga (HDClub); українська доріжка - karvai0 - зведення, xslim, ratbol - запис з ТБ (всі - Гуртом).


ЗАЛИШАЙТЕСЬ ЯКОМОГА ДОВШЕ НА РОЗДАЧІ!

СКАЧАВ САМ - ДАЙ СКАЧАТИ ІНШИМ


 Трекер:    Зареєстрований   

Завантажити / скачати фільм українською



відео для новачків



 Зареєстрований:   2014-06-29 20:40
 Розмір:   6.55 GB 
 Оцінка фільму:   6.4/10 (Голосів: 25)
   
Інші релізи
   Морпіхи / Відроголові / Jarhead (2005) Ukr/Eng | Sub Eng karvai0  4 / 0   2.18 GB   2014-06-29 12:07 
   Морпiхи / Jarhead (2005) MAKAPOHHIK  1 / 0   1.85 GB   2009-09-15 07:51 
Scemp26 
Новенький


З нами з: 13.04.15
Востаннє: 29.11.16
Повідомлень: 7

2015-04-17 19:39  
НЕМАЄ ШВИДКОСТІ
Ваш часовий пояс: GMT + 2 Години

Нова тема   Відповісти