Завантажити та скачати торренти українською


300 спартанців: Відродження імперії / 300: Rise of an Empire (2014) 720p-mini (60fps)

Нові коментарі

Нова тема   Відповісти
Автор Повідомлення
Drool 
VIP


З нами з: 17.04.10
Востаннє: 06.12.16
Повідомлень: 1264

2014-06-29 13:37  
300 спартанців: Відродження імперії / 300: Rise of an Empire (2014) 720p-mini (60fps)

Жанр: фентезі, драма, екшн
Країна: США



Кінокомпанія: Atmosphere Entertainment MM LLC, Cruel & Unusual Films, Hollywood Gang Productions, Legendary Pictures, Nimar Studios Ltd, Warner Bros. Pictures
Режисер: Ноам Мюрро
Актори: Салліван Степлтон, Єва Ґрін, Ліна Хіді, Ханс Метісон, Родріґо Санторо, Андрєй Клод, Девід Уенем, Джек О`Коннелл, Марк Кіллін, Ендрю Тірнан

Сюжет:
Неймовірна міць армії Ксеркса, підім'явши під себе могутніх спартанців, рухається далі. Наступне місто на їх шляху - Афіни. Афіни теж не збираються здаватися, до того ж у них є один з найпотужніших флотів, яким управляє Фемістокл. Але так, як армія Ксеркса могутня й на суші і на воді, Афіни просять допомоги у своїх противників - спартанців. Також будуть показані основні конфлікти, що відбулися при Саламіні і Марафоні. Так само сюжет розкриє деякі подробиці з минулого Ксеркса, як саме він прийшов до статусу "Божественного короля".


Тривалість: 01:42:36
Якість: 720p-mini
Відео:
кодек:
розмір кадру: 1280x536
бітрейт: 5108 кб/с
частота кадрів: 59.940 кадрів/с

Аудіо:
мова: українська
переклад: професійний дубльований
кодек: 5.1
бітрейт: 448 кб/с

Джерело озвучення:
MediaInfo
General
Unique ID : 176354762250629211015584730021933114430 (0x84ACB116399F084309A678E65090643E)
Complete name : /mnt/disk_d/Video/Films/300.Rise.of.an.Empire.2014.Ukr.Dub..720p-mini.60fps.mkv
Format : Matroska
Format version : Version 4 / Version 2
File size : 3.98 GiB
Duration : 1h 42mn
Overall bit rate : 5 554 Kbps
Movie name : 300 спартанців: Відродження імперії / 300: Rise of an Empire (2014) 720p-mini (60fps) [NNNB, envy]
Encoded date : UTC 2010-02-22 21:41:31
Writing application : mkvmerge v6.1.0 ('Old Devil') built on Apr 14 2013 12:26:22
Writing library : libebml v1.3.0 + libmatroska v1.4.0

Video
ID : 1
Format : AVC
Format/Info : Advanced Video Codec
Format profile : [email protected]
Format settings, CABAC : Yes
Format settings, ReFrames : 9 frames
Codec ID : V_MPEG4/ISO/AVC
Duration : 1h 42mn
Bit rate : 5 108 Kbps
Width : 1 280 pixels
Height : 536 pixels
Display aspect ratio : 2.40:1
Frame rate : 59.940 fps
Color space : YUV
Chroma subsampling : 4:2:0
Bit depth : 8 bits
Scan type : Progressive
Bits/(Pixel*Frame) : 0.124
Stream size : 3.58 GiB (90%)
Title : 300 спартанців: Відродження імперії / 300: Rise of an Empire (2014) 720p-mini (60fps) [NNNB, envy]
Writing library : core 130 r2273 b3065e6
Encoding settings : cabac=1 / ref=9 / deblock=1:-3:-1 / analyse=0x3:0x133 / me=umh / subme=11 / psy=1 / psy_rd=1.00:0.10 / mixed_ref=1 / me_range=32 / chroma_me=1 / trellis=2 / 8x8dct=1 / cqm=0 / deadzone=21,11 / fast_pskip=0 / chroma_qp_offset=-3 / threads=12 / lookahead_threads=2 / sliced_threads=0 / nr=0 / decimate=1 / interlaced=0 / bluray_compat=0 / constrained_intra=0 / bframes=7 / b_pyramid=2 / b_adapt=2 / b_bias=0 / direct=3 / weightb=1 / open_gop=0 / weightp=2 / keyint=250 / keyint_min=25 / scenecut=40 / intra_refresh=0 / rc=2pass / mbtree=0 / bitrate=5108 / ratetol=1.0 / qcomp=0.60 / qpmin=0 / qpmax=69 / qpstep=4 / cplxblur=20.0 / qblur=0.5 / ip_ratio=1.40 / pb_ratio=1.30 / aq=2:0.90
Language : English
Default : Yes
Forced : No

Audio
ID : 2
Format : AC-3
Format/Info : Audio Coding 3
Mode extension : CM (complete main)
Codec ID : A_AC3
Duration : 1h 42mn
Bit rate mode : Constant
Bit rate : 448 Kbps
Channel(s) : 6 channels
Channel positions : Front: L C R, Side: L R, LFE
Sampling rate : 48.0 KHz
Bit depth : 16 bits
Compression mode : Lossy
Stream size : 329 MiB (8%)
Title : Рідна мова [, 48000 Hz, 5.1, s16, 448 kb/s]
Language : Ukrainian
Default : Yes
Forced : No
Світлини




Джерело:
Особиста оцінка: 8 - мені сподобалося


 Трекер:    Зареєстрований   

Завантажити / скачати фільм українською



відео для новачків



 Зареєстрований:   2014-06-29 20:26
 Розмір:   3.98 GB 
 Оцінка фільму:   9.2/10 (Голосів: 20)
   
bot 
робот


З нами з: 30.09.07
Востаннє: 26.05.05
Повідомлень: 16002

2014-06-29 13:37  
Тему перенесено з Фільми в HD до форуму Анонси релізів


Drool

bot 
робот


З нами з: 30.09.07
Востаннє: 26.05.05
Повідомлень: 16002

2014-06-29 20:26  
Тему перенесено з Анонси релізів до форуму Фільми в HD


Drool

NeetScrool 
Відео Гуртом - фільмокрай
Відео Гуртом - фільмокрай


З нами з: 10.01.13
Востаннє: 06.12.16
Повідомлень: 2218

2014-07-03 11:35  
Самопал?
Drool 
VIP


З нами з: 17.04.10
Востаннє: 06.12.16
Повідомлень: 1264

2014-07-03 20:05  
NeetScrool написано:
Самопал?

Звісно, від NNNB.

Krysztal 
Новенький


З нами з: 04.07.14
Востаннє: 03.12.16
Повідомлень: 6

2014-07-06 11:33  
Drool написано:
бітрейт: 5108 кб/с

mini < 3.5 Мб/с

Drool 
VIP


З нами з: 17.04.10
Востаннє: 06.12.16
Повідомлень: 1264

2014-07-06 17:21  
Krysztal написано:
mini < 3.5 Мб/с

mini Bits/(Pixel*Frame) <0.16

Ваш часовий пояс: GMT + 2 Години

Нова тема   Відповісти