Завантажити та скачати торренти українською


Похмурий самурай / Tasogare Seibei / The Twilight Samurai (2002) 720p Ukr/Jap | Sub Ukr/Eng

Нові коментарі

Нова тема   Відповісти
Автор Повідомлення
Anonymous 







2014-06-29 11:35  
Похмурий самурай / Tasogare Seibei / The Twilight Samurai (2002) 720p Ukr/Jap | Sub Ukr/Eng



Альтернативні постери







Жанр: драма, романтичний, мелодрама
Країна: Японія



Кінокомпанія: Eisei Gekijo Company, Hakuhodo, Nippon Shuppan Hanbai (Nippan) K.K.
Режисер: Йодзі Ямада / Yôji Yamada
Актори: Хіроюкі Санада / Hiroyuki Sanada, Ріе Міядзава / Rie Miyazawa, Нендзі Кобаясі / Nenji Kobayashi, Рен Осуґі / Ren Osugi, Міцуру Фукікоші / Mitsuru Fukikoshi, Канако Фукаура / Kanako Fukaura, Хіроші Канбе / Hiroshi Kanbe, Мікі Іто / Miki Itô, Еріна Хашіґучі / Erina Hashiguchi, Рейко Кусамура / Reiko Kusamura

Сюжет:
Історія Сейбея - скромного самурая низького рангу і його сім'ї, що жили в епоху смути. Сейбей переміг у двобої суперника дерев'яним мечем і як тільки про це стало відомо, його проти його ж волі вплутали у конфлікт всередині самурайського клану. Він отримує наказ від сюзерена вбити такого ж як і він сам, самурая низького рангу - васала...


Вікова категорія: 12+

Тривалість: 02:09:02
Якість: 720p [crf=16.5]
Відео:
кодек:
розмір кадру: 1280 x 692
бітрейт: 8706 кбіт/с

Аудіо # 1:
мова: українська
переклад: двоголосий закадровий
кодек: 2.0
бітрейт: 192 кб/с
примітка: озвучено поверх російського закадрового озвучення, на проміжку 01:03:46-01:04:38 нема українського озвучення, так транслював канал

Аудіо # 2:
мова: японська
переклад: оригінал
кодек: 5.1
бітрейт: 640 кб/с

Субтитри:
мова: українська
тип: програмні (м'які)
формат: *.srt

Субтитри:
мова: англійська
тип: програмні (м'які)
формат: *.srt

Збережено оригінальні розділи, як на Blu-ray.
MediaInfo
Код:
General
Unique ID                                : 192365173344062408191798344280882176685 (0x90B82F4C6F62E4D79CD6613D770E62AD)
Complete name                            : Tasogare Seibei (2002) [Ukr,Jap sub.Ukr,Eng] 720p [Hurtom].mkv
Format                                   : Matroska
Format version                           : Version 4 / Version 2
File size                                : 8.77 GiB
Duration                                 : 2h 9mn
Overall bit rate                         : 9 732 Kbps
Movie name                               : Похмурий самурай / Tasogare Seibei / The Twilight Samurai (2002) 720p [Hurtom]
Encoded date                             : UTC 2014-06-29 08:27:17
Writing application                      : mkvmerge v7.0.0 ('Where We Going') 64bit built on Jun  9 2014 15:16:27
Writing library                          : libebml v1.3.0 + libmatroska v1.4.1
DURATION                                 : 02:05:14.050000000
NUMBER_OF_FRAMES                         : 1154
NUMBER_OF_BYTES                          : 62670
_STATISTICS_WRITING_APP                  : mkvmerge v7.0.0 ('Where We Going') 64bit built on Jun  9 2014 15:16:27
_STATISTICS_WRITING_DATE_UTC             : 2014-06-29 08:27:17
_STATISTICS_TAGS                         : BPS DURATION NUMBER_OF_FRAMES NUMBER_OF_BYTES

Video
ID                                       : 1
Format                                   : AVC
Format/Info                              : Advanced Video Codec
Format profile                           : [email protected]
Format settings, CABAC                   : Yes
Format settings, ReFrames                : 9 frames
Codec ID                                 : V_MPEG4/ISO/AVC
Duration                                 : 2h 9mn
Bit rate                                 : 8 706 Kbps
Width                                    : 1 280 pixels
Height                                   : 692 pixels
Display aspect ratio                     : 1.85:1
Frame rate mode                          : Constant
Frame rate                               : 23.976 fps
Color space                              : YUV
Chroma subsampling                       : 4:2:0
Bit depth                                : 8 bits
Scan type                                : Progressive
Bits/(Pixel*Frame)                       : 0.410
Stream size                              : 7.85 GiB (89%)
Title                                    : Похмурий самурай / Tasogare Seibei / The Twilight Samurai / Сумрачный самурай (2002) 720p [EbP]
Writing library                          : core 122 r2184 5c85e0a
Encoding settings                        : cabac=1 / ref=9 / deblock=1:-3:-3 / analyse=0x3:0x113 / me=tesa / subme=11 / psy=1 / psy_rd=1.10:0.00 / mixed_ref=1 / me_range=16 / chroma_me=1 / trellis=2 / 8x8dct=1 / cqm=0 / deadzone=21,11 / fast_pskip=0 / chroma_qp_offset=-2 / threads=12 / sliced_threads=0 / nr=0 / decimate=0 / interlaced=0 / bluray_compat=0 / constrained_intra=0 / bframes=7 / b_pyramid=2 / b_adapt=2 / b_bias=0 / direct=3 / weightb=1 / open_gop=0 / weightp=2 / keyint=250 / keyint_min=23 / scenecut=40 / intra_refresh=0 / rc=crf / mbtree=0 / crf=16.5 / qcomp=0.70 / qpmin=0 / qpmax=69 / qpstep=4 / ip_ratio=1.40 / pb_ratio=1.30 / aq=1:0.75
Language                                 : English
Default                                  : Yes
Forced                                   : Yes
DURATION                                 : 02:09:02.694000000
NUMBER_OF_FRAMES                         : 185639
NUMBER_OF_BYTES                          : 8611390187
_STATISTICS_WRITING_APP                  : mkvmerge v7.0.0 ('Where We Going') 64bit built on Jun  9 2014 15:16:27
_STATISTICS_WRITING_DATE_UTC             : 2014-06-29 08:27:17
_STATISTICS_TAGS                         : BPS DURATION NUMBER_OF_FRAMES NUMBER_OF_BYTES

Audio #1
ID                                       : 2
Format                                   : AC-3
Format/Info                              : Audio Coding 3
Mode extension                           : CM (complete main)
Format settings, Endianness              : Big
Codec ID                                 : A_AC3
Duration                                 : 2h 9mn
Bit rate mode                            : Constant
Bit rate                                 : 192 Kbps
Channel(s)                               : 2 channels
Channel positions                        : Front: L R
Sampling rate                            : 48.0 KHz
Bit depth                                : 16 bits
Compression mode                         : Lossy
Delay relative to video                  : 7ms
Stream size                              : 177 MiB (2%)
Title                                    : DVO [Kino] 2.0 192 Kbps [Hurtom-karvai0]
Language                                 : Ukrainian
Default                                  : Yes
Forced                                   : Yes

Audio #2
ID                                       : 3
Format                                   : AC-3
Format/Info                              : Audio Coding 3
Mode extension                           : CM (complete main)
Format settings, Endianness              : Big
Codec ID                                 : A_AC3
Duration                                 : 2h 9mn
Bit rate mode                            : Constant
Bit rate                                 : 640 Kbps
Channel(s)                               : 6 channels
Channel positions                        : Front: L C R, Side: L R, LFE
Sampling rate                            : 48.0 KHz
Bit depth                                : 16 bits
Compression mode                         : Lossy
Stream size                              : 591 MiB (7%)
Title                                    : Original 5.1 640 Kbps
Language                                 : Japanese
Default                                  : No
Forced                                   : No

Text #1
ID                                       : 4
Format                                   : UTF-8
Codec ID                                 : S_TEXT/UTF8
Codec ID/Info                            : UTF-8 Plain Text
Title                                    : Ukr full [Hurtom]
Language                                 : Ukrainian
Default                                  : No
Forced                                   : No

Text #2
ID                                       : 5
Format                                   : UTF-8
Codec ID                                 : S_TEXT/UTF8
Codec ID/Info                            : UTF-8 Plain Text
Title                                    : Eng full
Language                                 : English
Default                                  : No
Forced                                   : No

Menu
00:00:00.000                             : en:00:00:00.000
00:03:18.323                             : en:00:03:18.323
00:14:56.062                             : en:00:14:56.062
00:23:31.744                             : en:00:23:31.744
00:29:04.326                             : en:00:29:04.326
00:39:57.395                             : en:00:39:57.395
00:46:55.646                             : en:00:46:55.646
00:51:07.189                             : en:00:51:07.189
00:56:31.722                             : en:00:56:31.722
01:03:43.653                             : en:01:03:43.653
01:10:52.915                             : en:01:10:52.915
01:23:18.202                             : en:01:23:18.202
01:27:01.550                             : en:01:27:01.550
01:41:40.094                             : en:01:41:40.094
01:52:55.686                             : en:01:52:55.686
02:00:29.556                             : en:02:00:29.556
02:03:12.594                             : en:02:03:12.594




Джерела та подяки: &
ріп відео - EbP (HDbits); українська доріжка - karvai0 - зведення, Tanat13 - запис з ТБ; українські субтитри - команда субтитруванн (всі - Гуртом).


ЗАЛИШАЙТЕСЬ ЯКОМОГА ДОВШЕ НА РОЗДАЧІ!

СКАЧАВ САМ - ДАЙ СКАЧАТИ ІНШИМ


Срібний реліз (на рейтинг впливає 50% завантаженого)
 Трекер:    Зареєстрований   

Завантажити / скачати фільм українською



відео для новачків



 Зареєстрований:   2014-06-29 11:35
 Розмір:   8.77 GB 
 Оцінка фільму:   3.5/10 (Голосів: 14)
   
Інші релізи
Ваш часовий пояс: GMT + 2 Години

Нова тема   Відповісти