Завантажити та скачати торренти українською


Ізоляція / Isolation (2005) 720p Ukr/Eng

Нові коментарі

Нова тема   Відповісти
Автор Повідомлення
Anonymous 







2014-06-28 14:42  
Ізоляція / Isolation (2005) 720p Ukr/Eng



Альтернативний постер



Жанр: жахи, фантастика, трилер
Країна: Великобританія, Ірландія, США



Кінокомпанія: Film Four, Lions Gate Films, Bórd Scannán na hÉireann
Режисер: Білі О'Браян / Billy O'Brien
Актори: Есі Девіс / Essie Davis, Шон Гаріс / Sean Harris, Марсель Юрес / Marcel Iures, Джон Лінч / John Lynch, Рут Неґа / Ruth Negga, Стенлі Тавнсенд / Stanley Townsend та інші

Сюжет:
Ірландія. Глибинка. Покинута ферма Дена Рейлі - зруйновані будівлі, повний занепад. Ден ледве зводить кінці з кінцями. У розпачі він погоджується взяти участь у генетичному експерименті, дозволяє провести тести на своїй рогатій худобі місцевій лабораторії біотехнології ...

Експеримент дає збій і п'ять чоловік, що знаходяться на фермі, стають мимовільними учасниками та заручниками ситуації, нездатними уникнути подій, що відбуваються. 24 години ізоляції ...


Рейтинг MPAA: R - особам до 17 років обов'язкова присутність батьків або дорослого опікуна
Вікова категорія: 16+

Тривалість: 01:34:28
Якість: 720p
Відео:
кодек:
розмір кадру: 1280х544
бітрейт: 4160 кбіт/с

Аудіо # 1:
мова: українська
переклад: багатоголосий закадровий
кодек: 2.0
бітрейт: 192 кбіт/с

Аудіо # 2:
мова: англійська
переклад: оригінал
кодек: 5.1
бітрейт: 768 кбіт/с

Збережено оригінальні розділи, як на Blu-ray.
MediaInfo
Код:
General
Unique ID                                : 234514636062016112051800661480682247429 (0xB06DE041769CD767AA601000E4535505)
Complete name                            : Isolation (2005) [Ukr,Eng] 720p [Hurtom].mkv
Format                                   : Matroska
Format version                           : Version 4 / Version 2
File size                                : 3.38 GiB
Duration                                 : 1h 34mn
Overall bit rate                         : 5 122 Kbps
Movie name                               : Ізоляція / Isolation (2005) 720p [Hurtom]
Encoded date                             : UTC 2014-06-28 11:27:02
Writing application                      : mkvmerge v7.0.0 ('Where We Going') 64bit built on Jun  9 2014 15:16:27
Writing library                          : libebml v1.3.0 + libmatroska v1.4.1
DURATION                                 : 01:34:28.192000000
NUMBER_OF_FRAMES                         : 177131
NUMBER_OF_BYTES                          : 136036608
_STATISTICS_WRITING_APP                  : mkvmerge v7.0.0 ('Where We Going') 64bit built on Jun  9 2014 15:16:27
_STATISTICS_WRITING_DATE_UTC             : 2014-06-28 11:27:02
_STATISTICS_TAGS                         : BPS DURATION NUMBER_OF_FRAMES NUMBER_OF_BYTES

Video
ID                                       : 1
Format                                   : AVC
Format/Info                              : Advanced Video Codec
Format profile                           : [email protected]
Format settings, CABAC                   : Yes
Format settings, ReFrames                : 8 frames
Codec ID                                 : V_MPEG4/ISO/AVC
Duration                                 : 1h 34mn
Bit rate                                 : 4 160 Kbps
Width                                    : 1 280 pixels
Height                                   : 544 pixels
Display aspect ratio                     : 2.35:1
Frame rate mode                          : Constant
Frame rate                               : 23.976 fps
Color space                              : YUV
Chroma subsampling                       : 4:2:0
Bit depth                                : 8 bits
Scan type                                : Progressive
Bits/(Pixel*Frame)                       : 0.249
Stream size                              : 2.68 GiB (79%)
Title                                    : Ізоляція / Isolation / Изоляция (2005) 720p [ExKinoRay-olegek70]
Writing library                          : core 125 r2200 999b753
Encoding settings                        : cabac=1 / ref=8 / deblock=1:-2:-2 / analyse=0x3:0x113 / me=umh / subme=9 / psy=1 / psy_rd=1.00:0.00 / mixed_ref=1 / me_range=32 / chroma_me=1 / trellis=2 / 8x8dct=1 / cqm=0 / deadzone=21,11 / fast_pskip=0 / chroma_qp_offset=-2 / threads=6 / lookahead_threads=1 / sliced_threads=0 / nr=0 / decimate=0 / interlaced=0 / bluray_compat=0 / constrained_intra=0 / bframes=8 / b_pyramid=2 / b_adapt=2 / b_bias=0 / direct=3 / weightb=1 / open_gop=0 / weightp=2 / keyint=240 / keyint_min=23 / scenecut=40 / intra_refresh=0 / rc=2pass / mbtree=0 / bitrate=4160 / ratetol=1.0 / qcomp=0.60 / qpmin=0 / qpmax=69 / qpstep=4 / cplxblur=20.0 / qblur=0.5 / ip_ratio=1.40 / pb_ratio=1.30 / aq=1:1.10
Language                                 : English
Default                                  : Yes
Forced                                   : Yes
DURATION                                 : 01:34:28.214000000
NUMBER_OF_FRAMES                         : 135901
NUMBER_OF_BYTES                          : 2946823836
_STATISTICS_WRITING_APP                  : mkvmerge v7.0.0 ('Where We Going') 64bit built on Jun  9 2014 15:16:27
_STATISTICS_WRITING_DATE_UTC             : 2014-06-28 11:27:02
_STATISTICS_TAGS                         : BPS DURATION NUMBER_OF_FRAMES NUMBER_OF_BYTES

Audio #1
ID                                       : 2
Format                                   : AC-3
Format/Info                              : Audio Coding 3
Mode extension                           : CM (complete main)
Format settings, Endianness              : Big
Codec ID                                 : A_AC3
Duration                                 : 1h 34mn
Bit rate mode                            : Constant
Bit rate                                 : 192 Kbps
Channel(s)                               : 2 channels
Channel positions                        : Front: L R
Sampling rate                            : 48.0 KHz
Bit depth                                : 16 bits
Compression mode                         : Lossy
Stream size                              : 130 MiB (4%)
Title                                    : MVO [NTN] 2.0 192 Kbps [Hurtom-patriot2305]
Language                                 : Ukrainian
Default                                  : Yes
Forced                                   : Yes

Audio #2
ID                                       : 3
Format                                   :
Format/Info                              : Digital Theater Systems
Mode                                     : 16
Format settings, Endianness              : Big
Codec ID                                 : A_DTS
Duration                                 : 1h 34mn
Bit rate mode                            : Constant
Bit rate                                 : 768 Kbps
Channel(s)                               : 6 channels
Channel positions                        : Front: L C R, Side: L R, LFE
Sampling rate                            : 48.0 KHz
Bit depth                                : 16 bits
Compression mode                         : Lossy
Stream size                              : 519 MiB (15%)
Title                                    : Original 5.1 768 Kbps
Language                                 : English
Default                                  : No
Forced                                   : No

Menu
00:00:00.000                             : en:Chapter 01
00:07:37.957                             : en:Chapter 02
00:14:58.856                             : en:Chapter 03
00:24:33.180                             : en:Chapter 04
00:31:57.790                             : en:Chapter 05
00:39:09.597                             : en:Chapter 06
00:46:58.982                             : en:Chapter 07
00:54:44.155                             : en:Chapter 08
01:02:49.891                             : en:Chapter 09
01:09:51.604                             : en:Chapter 10
01:18:23.407                             : en:Chapter 11
01:26:18.256                             : en:Chapter 12




Джерела та подяки: &
ріп відео, оригінальний звук - olegek70 (ExKinoRay); українська доріжка - patriot2305 - зведення, POMEO - запис з ТБ (всі - Гуртом).


ЗАЛИШАЙТЕСЬ ЯКОМОГА ДОВШЕ НА РОЗДАЧІ!

СКАЧАВ САМ - ДАЙ СКАЧАТИ ІНШИМ


 Трекер:    Зареєстрований   

Завантажити / скачати фільм українською



відео для новачків



 Зареєстрований:   2014-06-28 14:42
 Розмір:   3.38 GB 
 Оцінка фільму:   3.6/10 (Голосів: 14)
   
Інші релізи
   Ізоляція / Isolation (2005) patriot2305  4 / 0   1.33 GB   2014-06-27 21:49 
Ваш часовий пояс: GMT + 2 Години

Нова тема   Відповісти