Завантажити та скачати торренти українською


Слова [Розширена версія] / The Words [Extended Cut] (2012) 720p Ukr/Eng | Sub Ukr/Eng

Нові коментарі

Нова тема   Відповісти
Автор Повідомлення
Anonymous 







2014-06-27 17:37  
Слова [Розширена версія] / The Words [Extended Cut] (2012) 720p Ukr/Eng | Sub Ukr/Eng



Оригінальний постер



Жанр: драма, детектив, романтичний, мелодрама
Країна: США



Кінокомпанія: Also Known As Pictures, Benaroya Pictures, Animus Films
Режисер: Брайан Кладжман / Brian Klugman, Лі Стернзал / Lee Sternthal
Актори: Бредлі Купер / Bradley Cooper, Зої Салдана / Zoe Saldana, Джеремі Айронс / Jeremy Irons, Денніс Квейд / Dennis Quaid, Олівія Вайлд / Olivia Wilde, Бен Барнс / Ben Barnes, Нора Арнездер / Nora Arnezeder, Дж.K. Сіммонс / J.K. Simmons, Рон Ріфкін / Ron Rifkin, Желько Іванек / Zeljko Ivanek

Сюжет:
Рорі Янсен - письменник, який нарешті знаходить довгоочікувану популярність, але його роман-бестселер виявляється написаний іншою людиною, якій він тепер повинен заплатити високу ціну за викрадені у нього життя і роботу.


Рейтинг MPAA: PG-13 - дітям до 13 років перегляд не бажаний
Вікова категорія: 12+

Тривалість: 01:42:41
Якість: 720p
Відео:
кодек:
розмір кадру: 1280x694
бітрейт: 9118 кбіт/с [crf=15.8]

Аудіо # 1:
мова: українська
переклад: багатоголосий закадровий
кодек: 2.0
бітрейт: 192 кбіт/с
примітка: озвучення повне

Аудіо # 2:
мова: англійська
переклад: оригінал
кодек: 5.1
бітрейт: 1536 кбіт/с

Субтитри # 1:
мова: українська - переклад та редагування DеLight
тип: програмні (м'які)
формат: *.srt

Субтитри # 2-3:
мова: англійська (повні, SDH)
тип: програмні (м'які)
формат: *.srt

Збережено оригінальні розділи, як на Blu-ray.
MediaInfo
Код:
General
Unique ID                                : 191637665068285602730663864600558714973 (0x902C125F0B187061852793FB33AA405D)
Complete name                            : The Words [Ext.cut] (2012) [Ukr,Eng sub.Ukr,Eng] 720p [Hurtom].mkv
Format                                   : Matroska
Format version                           : Version 4 / Version 2
File size                                : 7.92 GiB
Duration                                 : 1h 42mn
Overall bit rate                         : 11.0 Mbps
Movie name                               : Слова / The Words [Extended Cut] (2012) 720p [Hurtom]
Encoded date                             : UTC 2014-06-27 15:11:58
Writing application                      : mkvmerge v7.0.0 ('Where We Going') 64bit built on Jun  9 2014 15:16:27
Writing library                          : libebml v1.3.0 + libmatroska v1.4.1
DURATION                                 : 01:42:41.078000000
NUMBER_OF_FRAMES                         : 577601
NUMBER_OF_BYTES                          : 1162133212
_STATISTICS_WRITING_APP                  : mkvmerge v7.0.0 ('Where We Going') 64bit built on Jun  9 2014 15:16:27
_STATISTICS_WRITING_DATE_UTC             : 2014-06-27 15:11:58
_STATISTICS_TAGS                         : BPS DURATION NUMBER_OF_FRAMES NUMBER_OF_BYTES

Video
ID                                       : 1
Format                                   : AVC
Format/Info                              : Advanced Video Codec
Format profile                           : [email protected]
Format settings, CABAC                   : Yes
Format settings, ReFrames                : 9 frames
Codec ID                                 : V_MPEG4/ISO/AVC
Duration                                 : 1h 42mn
Bit rate                                 : 9 118 Kbps
Width                                    : 1 280 pixels
Height                                   : 694 pixels
Display aspect ratio                     : 1.85:1
Frame rate mode                          : Constant
Frame rate                               : 23.976 fps
Color space                              : YUV
Chroma subsampling                       : 4:2:0
Bit depth                                : 8 bits
Scan type                                : Progressive
Bits/(Pixel*Frame)                       : 0.428
Stream size                              : 6.54 GiB (83%)
Title                                    : Слова / The Words [Extended Cut] (2012) 720p [EbP]
Writing library                          : core 128 r2216 198a7ea
Encoding settings                        : cabac=1 / ref=9 / deblock=1:-3:-3 / analyse=0x3:0x113 / me=tesa / subme=9 / psy=1 / psy_rd=1.15:0.00 / mixed_ref=1 / me_range=16 / chroma_me=1 / trellis=2 / 8x8dct=1 / cqm=0 / deadzone=21,11 / fast_pskip=0 / chroma_qp_offset=-2 / threads=12 / lookahead_threads=2 / sliced_threads=0 / nr=0 / decimate=0 / interlaced=0 / bluray_compat=0 / constrained_intra=0 / bframes=8 / b_pyramid=2 / b_adapt=2 / b_bias=0 / direct=3 / weightb=1 / open_gop=0 / weightp=2 / keyint=250 / keyint_min=23 / scenecut=40 / intra_refresh=0 / rc=crf / mbtree=0 / crf=15.8 / qcomp=0.60 / qpmin=0 / qpmax=69 / qpstep=4 / ip_ratio=1.40 / pb_ratio=1.30 / aq=1:0.50
Language                                 : English
Default                                  : Yes
Forced                                   : No
Matrix coefficients                      : BT.709
DURATION                                 : 01:42:41.030000000
NUMBER_OF_FRAMES                         : 147717
NUMBER_OF_BYTES                          : 7189164864
_STATISTICS_WRITING_APP                  : mkvmerge v7.0.0 ('Where We Going') 64bit built on Jun  9 2014 15:16:27
_STATISTICS_WRITING_DATE_UTC             : 2014-06-27 15:11:58
_STATISTICS_TAGS                         : BPS DURATION NUMBER_OF_FRAMES NUMBER_OF_BYTES

Audio #1
ID                                       : 2
Format                                   : AC-3
Format/Info                              : Audio Coding 3
Mode extension                           : CM (complete main)
Format settings, Endianness              : Big
Codec ID                                 : A_AC3
Duration                                 : 1h 42mn
Bit rate mode                            : Constant
Bit rate                                 : 192 Kbps
Channel(s)                               : 2 channels
Channel positions                        : Front: L R
Sampling rate                            : 48.0 KHz
Bit depth                                : 16 bits
Compression mode                         : Lossy
Stream size                              : 141 MiB (2%)
Title                                    : MVO [1+1] 2.0 192 Kbps [Hurtom-karvai0]
Language                                 : Ukrainian
Default                                  : Yes
Forced                                   : Yes

Audio #2
ID                                       : 3
Format                                   :
Format/Info                              : Digital Theater Systems
Mode                                     : 16
Format settings, Endianness              : Big
Codec ID                                 : A_DTS
Duration                                 : 1h 42mn
Bit rate mode                            : Constant
Bit rate                                 : 1 509 Kbps
Channel(s)                               : 6 channels
Channel positions                        : Front: L C R, Side: L R, LFE
Sampling rate                            : 48.0 KHz
Bit depth                                : 16 bits
Compression mode                         : Lossy
Stream size                              : 1.08 GiB (14%)
Title                                    : Original 5.1 1536 Kbps [HDClub]
Language                                 : English
Default                                  : No
Forced                                   : No

Text #1
ID                                       : 4
Format                                   : UTF-8
Codec ID                                 : S_TEXT/UTF8
Codec ID/Info                            : UTF-8 Plain Text
Title                                    : Ukr full [Hurtom-DeLight]
Language                                 : Ukrainian
Default                                  : No
Forced                                   : No

Text #2
ID                                       : 5
Format                                   : UTF-8
Codec ID                                 : S_TEXT/UTF8
Codec ID/Info                            : UTF-8 Plain Text
Title                                    : Eng full
Language                                 : English
Default                                  : No
Forced                                   : No

Text #3
ID                                       : 6
Format                                   : UTF-8
Codec ID                                 : S_TEXT/UTF8
Codec ID/Info                            : UTF-8 Plain Text
Title                                    : Eng [SDH]
Language                                 : English
Default                                  : No
Forced                                   : No

Menu
00:00:00.000                             : en:Chapter 1
00:03:57.988                             : en:Chapter 2
00:08:39.144                             : en:Chapter 3
00:14:33.456                             : en:Chapter 4
00:19:25.623                             : en:Chapter 5
00:25:23.981                             : en:Chapter 6
00:31:36.228                             : en:Chapter 7
00:34:43.164                             : en:Chapter 8
00:41:16.724                             : en:Chapter 9
00:45:40.780                             : en:Chapter 10
00:50:32.696                             : en:Chapter 11
00:56:45.569                             : en:Chapter 12
01:04:45.256                             : en:Chapter 13
01:11:44.050                             : en:Chapter 14
01:19:55.916                             : en:Chapter 15
01:28:32.557                             : en:Chapter 16




Джерела та подяки:
ріп відео - EbP; українська доріжка - karvai0 - зведення, OlegCena, MAKAPOHHIK, POMEO - запис з ТБ; українські субтитри - DеLight; українізований постер - ostipko (всі - Гуртом).


ЗАЛИШАЙТЕСЬ ЯКОМОГА ДОВШЕ НА РОЗДАЧІ!

СКАЧАВ САМ - ДАЙ СКАЧАТИ ІНШИМ


 Трекер:    Зареєстрований   

Завантажити / скачати фільм українською



відео для новачків



 Зареєстрований:   2014-06-27 17:37
 Розмір:   7.92 GB 
 Оцінка фільму:   5/10 (Голосів: 21)
   
FilmDirector 
Свій


З нами з: 21.10.11
Востаннє: 04.12.16
Повідомлень: 94

2014-12-24 04:09  
Нецікавий фільм. Не раджу. Хоча Олівія Вайдл і молодий Дідусь цікаві.
murew 
Новенький


З нами з: 06.05.11
Востаннє: 16.10.16
Повідомлень: 8

2015-01-09 17:22  
Боюся, щоб через перший коментар ви пройдете повз цей фільм. Він напрочуд цікавий!
AndriyKosh 
Частий відвідувач


З нами з: 02.10.11
Востаннє: 05.12.16
Повідомлень: 33

2015-01-11 02:36  
Так, фільм дуже цікавий, мені сподобався 9,5/10. Щоправда дружина Янсена - ще та сучка. Дивився театральну версію, багато добавили в розширеній?
BaskaBatka 
Новенький


З нами з: 23.11.14
Востаннє: 28.07.15
Повідомлень: 6

2015-06-15 08:53  
Цікавезний.
Maters 
VIP


З нами з: 27.03.12
Востаннє: 05.12.16
Повідомлень: 1159

2015-10-16 23:38  
Класний фільм. Рекомендую!
Ваш часовий пояс: GMT + 2 Години

Нова тема   Відповісти