Завантажити та скачати торренти українською


Слова [Розширена версія] / The Words [Extended Cut] (2012) 1080p Ukr/Eng | Sub Ukr/Eng

Нові коментарі

Нова тема   Відповісти
Автор Повідомлення
Anonymous 







2014-06-27 16:50  
Слова [Розширена версія] / The Words [Extended Cut] (2012) 1080p Ukr/Eng | Sub Ukr/Eng



Оригінальний постер



Жанр: драма, детектив, романтичний, мелодрама
Країна: США



Кінокомпанія: Also Known As Pictures, Benaroya Pictures, Animus Films
Режисер: Брайан Кладжман / Brian Klugman, Лі Стернзал / Lee Sternthal
Актори: Бредлі Купер / Bradley Cooper, Зої Салдана / Zoe Saldana, Джеремі Айронс / Jeremy Irons, Денніс Квейд / Dennis Quaid, Олівія Вайлд / Olivia Wilde, Бен Барнс / Ben Barnes, Нора Арнездер / Nora Arnezeder, Дж.K. Сіммонс / J.K. Simmons, Рон Ріфкін / Ron Rifkin, Желько Іванек / Zeljko Ivanek

Сюжет:
Рорі Янсен - письменник, який нарешті знаходить довгоочікувану популярність, але його роман-бестселер виявляється написаний іншою людиною, якій він тепер повинен заплатити високу ціну за викрадені у нього життя і роботу.


Рейтинг MPAA: PG-13 - дітям до 13 років перегляд не бажаний
Вікова категорія: 12+

Тривалість: 01:42:41
Якість: 1080p
Відео:
кодек:
розмір кадру: 1920x1038
бітрейт: 15,5 Мбіт/с

Аудіо # 1:
мова: українська
переклад: багатоголосий закадровий
кодек: 2.0
бітрейт: 192 кбіт/с
примітка: озвучення повне

Аудіо # 2:
мова: англійська
переклад: оригінал
кодек: 5.1
бітрейт: 1536 кбіт/с

Субтитри # 1:
мова: українська - переклад та редагування DеLight
тип: програмні (м'які)
формат: *.srt

Субтитри # 2-3:
мова: англійська (повні, SDH)
тип: програмні (м'які)
формат: *.srt

Збережено оригінальні розділи, як на Blu-ray.
MediaInfo та log
[info]: frame I:805 Avg QP:18.62 size:194307
[info]: frame P:27512 Avg QP:19.49 size:117762
[info]: frame B:119400 Avg QP:20.85 size: 71513
[info]: consecutive B-frames: 0.7% 1.0% 3.3% 21.0% 15.8% 21.1% 14.4% 21.9% 0.7%
Код:
General
Unique ID                                : 199386800550535649678609976880473399760 (0x9600803F8AEC6F30BDC1AB2E4F4961D0)
Complete name                            : The Words [Ext.cut] (2012) [Ukr,Eng sub.Ukr,Eng] 1080p [Hurtom & HDClub].mkv
Format                                   : Matroska
Format version                           : Version 4 / Version 2
File size                                : 12.3 GiB
Duration                                 : 1h 42mn
Overall bit rate                         : 17.2 Mbps
Movie name                               : Слова / The Words [Extended Cut] (2012) 1080p [Hurtom & HDClub]
Encoded date                             : UTC 2014-06-27 14:07:48
Writing application                      : mkvmerge v7.0.0 ('Where We Going') 64bit built on Jun  9 2014 15:16:27
Writing library                          : libebml v1.3.0 + libmatroska v1.4.1
DURATION                                 : 01:34:33.792000000
NUMBER_OF_FRAMES                         : 1005
NUMBER_OF_BYTES                          : 59576
_STATISTICS_WRITING_APP                  : mkvmerge v7.0.0 ('Where We Going') 64bit built on Jun  9 2014 15:16:27
_STATISTICS_WRITING_DATE_UTC             : 2014-06-27 14:07:48
_STATISTICS_TAGS                         : BPS DURATION NUMBER_OF_FRAMES NUMBER_OF_BYTES

Video
ID                                       : 1
Format                                   : AVC
Format/Info                              : Advanced Video Codec
Format profile                           : [email protected]
Format settings, CABAC                   : Yes
Format settings, ReFrames                : 4 frames
Codec ID                                 : V_MPEG4/ISO/AVC
Duration                                 : 1h 42mn
Bit rate                                 : 15.5 Mbps
Width                                    : 1 920 pixels
Height                                   : 1 038 pixels
Display aspect ratio                     : 1.85:1
Frame rate mode                          : Constant
Frame rate                               : 23.976 fps
Color space                              : YUV
Chroma subsampling                       : 4:2:0
Bit depth                                : 8 bits
Scan type                                : Progressive
Bits/(Pixel*Frame)                       : 0.324
Stream size                              : 10.9 GiB (88%)
Title                                    : Слова / The Words [Extended Cut] (2012) 1080p [HDCLUB-DaRkY]
Writing library                          : core 129 r2230+696+36 4446aa2 tMod+MixAQ [[email protected]:2:0 X86_64]
Encoding settings                        : cabac=1 / ref=4 / deblock=1:-3:-3 / analyse=0x3:0x113 / me=umh / subme=11 / psy=1 / fade_compensate=0.00 / psy_rd=1.10:0.00 / mixed_ref=1 / me_range=48 / chroma_me=1 / trellis=2 / 8x8dct=1 / cqm=0 / deadzone=21,11 / fast_pskip=0 / chroma_qp_offset=-2 / threads=18 / lookahead_threads=3 / sliced_threads=0 / nr=0 / decimate=0 / interlaced=0 / bluray_compat=0 / constrained_intra=0 / fgo=0 / bframes=8 / b_pyramid=2 / b_adapt=2 / b_bias=0 / direct=3 / weightb=1 / open_gop=0 / weightp=2 / keyint=240 / keyint_min=24 / scenecut=40 / intra_refresh=0 / rc_lookahead=240 / rc=2pass / mbtree=1 / bitrate=15500 / ratetol=1.0 / qcomp=0.70 / qpmin=0 / qpmax=69 / qpstep=4 / cplxblur=20.0 / qblur=0.5 / ip_ratio=1.10 / aq=4 / aq-strength=0.75 / aq-sensitivity=10.00 / aq-ifactor=1.00 / aq-pfactor=1.00 / aq-bfactor=1.00 / aq2=0
Language                                 : English
Default                                  : Yes
Forced                                   : No
DURATION                                 : 01:42:41.030000000
NUMBER_OF_FRAMES                         : 147717
NUMBER_OF_BYTES                          : 11934941753
_STATISTICS_WRITING_APP                  : mkvmerge v7.0.0 ('Where We Going') 64bit built on Jun  9 2014 15:16:27
_STATISTICS_WRITING_DATE_UTC             : 2014-06-27 14:07:48
_STATISTICS_TAGS                         : BPS DURATION NUMBER_OF_FRAMES NUMBER_OF_BYTES

Audio #1
ID                                       : 2
Format                                   : AC-3
Format/Info                              : Audio Coding 3
Mode extension                           : CM (complete main)
Format settings, Endianness              : Big
Codec ID                                 : A_AC3
Duration                                 : 1h 42mn
Bit rate mode                            : Constant
Bit rate                                 : 192 Kbps
Channel(s)                               : 2 channels
Channel positions                        : Front: L R
Sampling rate                            : 48.0 KHz
Bit depth                                : 16 bits
Compression mode                         : Lossy
Stream size                              : 141 MiB (1%)
Title                                    : MVO [1+1] 2.0 192 Kbps [Hurtom-karvai0]
Language                                 : Ukrainian
Default                                  : Yes
Forced                                   : Yes

Audio #2
ID                                       : 3
Format                                   :
Format/Info                              : Digital Theater Systems
Mode                                     : 16
Format settings, Endianness              : Big
Codec ID                                 : A_DTS
Duration                                 : 1h 42mn
Bit rate mode                            : Constant
Bit rate                                 : 1 509 Kbps
Channel(s)                               : 6 channels
Channel positions                        : Front: L C R, Side: L R, LFE
Sampling rate                            : 48.0 KHz
Bit depth                                : 16 bits
Compression mode                         : Lossy
Stream size                              : 1.08 GiB (9%)
Title                                    : Original 5.1 1536 Kbps
Language                                 : English
Default                                  : No
Forced                                   : No

Text #1
ID                                       : 4
Format                                   : UTF-8
Codec ID                                 : S_TEXT/UTF8
Codec ID/Info                            : UTF-8 Plain Text
Title                                    : Ukr full [Hurtom-DeLight]
Language                                 : Ukrainian
Default                                  : No
Forced                                   : No

Text #2
ID                                       : 5
Format                                   : UTF-8
Codec ID                                 : S_TEXT/UTF8
Codec ID/Info                            : UTF-8 Plain Text
Title                                    : Eng full
Language                                 : English
Default                                  : No
Forced                                   : No

Text #3
ID                                       : 6
Format                                   : UTF-8
Codec ID                                 : S_TEXT/UTF8
Codec ID/Info                            : UTF-8 Plain Text
Title                                    : Eng full [SDH]
Language                                 : English
Default                                  : No
Forced                                   : No

Menu
00:00:00.000                             : en:Chapter 1
00:03:57.988                             : en:Chapter 2
00:08:39.144                             : en:Chapter 3
00:14:33.456                             : en:Chapter 4
00:19:25.623                             : en:Chapter 5
00:25:23.981                             : en:Chapter 6
00:31:36.228                             : en:Chapter 7
00:34:43.164                             : en:Chapter 8
00:41:16.724                             : en:Chapter 9
00:45:40.780                             : en:Chapter 10
00:50:32.696                             : en:Chapter 11
00:56:45.569                             : en:Chapter 12
01:04:45.256                             : en:Chapter 13
01:11:44.050                             : en:Chapter 14
01:19:55.916                             : en:Chapter 15
01:28:32.557                             : en:Chapter 16




Джерела та подяки: &
ріп відео, оригінальні звук та субтитри - DaRkY (HDClub); українська доріжка - karvai0 - зведення, OlegCena, MAKAPOHHIK, POMEO - запис з ТБ; українські субтитри - DеLight; українізований постер - ostipko (всі - Гуртом).


ЗАЛИШАЙТЕСЬ ЯКОМОГА ДОВШЕ НА РОЗДАЧІ!

СКАЧАВ САМ - ДАЙ СКАЧАТИ ІНШИМ


 Трекер:    Зареєстрований   

Завантажити / скачати фільм українською



відео для новачків



 Зареєстрований:   2014-06-27 16:50
 Розмір:   12.34 GB 
 Оцінка фільму:   3.1/10 (Голосів: 13)
   
Ваш часовий пояс: GMT + 2 Години

Нова тема   Відповісти