Завантажити та скачати торренти українською


Звичайні підозрювані / Підозрілі особи / The Usual Suspects (1995) AVC 2xUkr/Eng | Sub Eng

Нові коментарі

Нова тема   Відповісти
Автор Повідомлення
Anonymous 







2014-06-26 18:01  
Звичайні підозрювані / Підозрілі особи / The Usual Suspects (1995) AVC 2xUkr/Eng | Sub Eng



Жанр: трилер, драма, кримінальний
Країна: США, Німеччина

Top 250 #23

2 Оскари, 3 премії Британської кіноакадемії та 2 премії Сатурн


Усі нагороди та номінації


Оскар, 1996 рік
Переможець (2):
Найкраща чоловіча роль другого плану (Кевін Спейсі),
Найкращий сценарій



Звичайні підозрювані / Підозрілі особи / The Usual Suspects (1995) AVC 2xUkr/Eng | Sub Eng
Британська академія кіно та телевізійного мистецтва, 1996 рік
Переможець (3):
Найкращий фільм,
Найкращий оригінальний сценарій,
Найкращий монтаж




Сатурн, 1996 рік
Переможець (2):
Найкращий пригодницький фільм чи бойовик,
Найкраща музика


Номінації (1):
Найкращий режисер (Брайян Сінґер)



Золотий глобус, 1996 рік
Номінації (1):
Найкраща чоловіча роль другого плану (Кевін Спейсі)



Премія Гільдії акторів, 1996 рік
Номінації (1):
Найкраща чоловіча роль другого плану (Кевін Спейсі)



Сезар, 1996 рік
Номінації (1):
Найкращий іншомовний фільм


Кінокомпанія: PolyGram Filmed Entertainment, Spelling Films International, Blue Parrot, Bad Hat Harry Productions, Rosco Film GmbH
Режисер: Брайян Сінґер / Bryan Singer
Актори: Стівен Болдвін / Stephen Baldwin, Ґебріель Бірн / Gabriel Byrne, Бенісіо Дель Торо / Benicio Del Toro, Кевін Поллак / Kevin Pollak, Кевін Спейсі / Kevin Spacey, Чазз Пальмінтері / Chazz Palminteri, Піт Постлейтвейт / Pete Postlethwaite, Джанкарло Еспозіто / Giancarlo Esposito, Сюзі Ейміс / Suzy Amis, Дан Гедая / Dan Hedaya

Сюжет:
Зазвичай, якщо є злочин, є мотив. Зазвичай, якщо проводиться впізнання, принаймні є один підозрюваний. Але це не було звичайним злочином. П'ятеро злочинців зіткнулися в одному незвичайному місці і вирішили прокрутити одну справу. Але хтось сильніший і могутніший, хтось, чиє ім'я лякає всіх злочинців світу, хоче, щоб вони попрацювали на нього.
Це не було звичайним злочином, і вони — не просто звичайні підозрювані.


Арґумент-кіно

22 листопада у програмі демонструвався кримінальний трилер американського кінорежисера Брайяна Сінґера «Звичайні підозрювані»/ The Usual Suspects (1995, США – Німеччиа). Його знято у стилі нео-нуар і визнано одним зі стилетворних фільмів 90-х. Скажімо, минулого року авторитетний Американський кіноінститут включив «Звичайних підозрюваних» до десятки найвизначніших, найвидатніших детективів за всю історію Голлівуду.

П’ятеро дійових осіб цього фільму, п’ятеро персонажів опиняються в одному місці, власне, в поліційному відділку. Опиняються не випадково, бо всі вони – крутії-крадії, шахраї та вбивці. Знадобилась ця розкішна компанія, за котрою тюрма плаче, якомусь загадковому і всесильному кримінальному авторитетові Кайзеру Созе, що тому ні в чому відмовити практично неможливо. Лишається тільки слухатись і виконувати накази. Ситуація, м’яко кажучи, тривожна і смертельно непевна…

Ці самі «звичайні підозрювані» почергово промовляють одну і ту ж фразу, а свідок десь поза кадром має впізнати водія вантажівки зі зброєю, яка пропала. Ну а мета глядача у пропонованому кіноребусі – дізнатися, хто ж насправді отой вже згаданий загадковий ґанґстер Кайзер Созе? І взагалі, чи існує той Созе насправді, а чи це «страшан казка, якою бандити лякають своїх дітей»? Бо фабульні елементи у фільмі, сценарист якого Крістофер Маккворі отримав за цю роботу «Оскара», переплутані так, що розібратися у всій цій історії буде ой як непросто!

Чим іще прикметний сьогоднійшній наш фільм, то це воістину блискучим, віртуозним акторським складом: Чазз Палмінтері, Бенісіо дель Торо, Ґебріел Бірн, Піт Постлетвейт, Стівен Болдвін, ну і, звичайно ж, Кевін Спейсі – найзловісніший, найнепомітніший, найжорстокіший і найзвичайніший лиходій голлівудського кіна.

Саме 1995 рік, коли вийшли на екран «Звичайні підозрювані» (до речі, буквально всипані різноманітними престижними кінонагородами), став для Спейсі визначальним у творчій кар’єрі. Мало того, що він отримав «Оскара» за роль другого плану в цьому фільмі, то знявся ще у трьох (серед них «Сім» Дейвіда Фінчера), і критики визнали актора найкращим у кожній із цих картин!

«Звичайні підозрювані» – незвичайна головокрутка, оповита атмосферою загадки, безкомпромісно стильний фільм, що він карколомно закручує свій сюжет із кожною наступною сценою. Це стрічка, яка запрошує глядачів поділити збентеження персонажів і спробувати розпізнати, де тут ілюзія, а де реальність. Це так, ніби ми з вами будемо присутні на виставі вигадливого фокусника…



Рейтинг MPAA: R - особам до 17 років обов'язкова присутність батьків або дорослого опікуна
Вікова категорія: 16+

Тривалість: 01:46:04
Якість: AVC
Відео:
кодек:
розмір кадру: 1024x436
бітрейт: 2900 кбіт/с

Аудіо # 1:
мова: українська - Студія 1+1
переклад: двоголосий закадровий
ролі озвучили: Володимир Нечепоренко та Світлана Круть (?)
кодек: 2.0
бітрейт: 192 кбіт/с

Аудіо # 2:
мова: українська
переклад: багатоголосий закадровий
кодек: 2.0
бітрейт: 192 кбіт/с

Аудіо # 3:
мова: англійська
переклад: оригінал
кодек: 5.1
бітрейт: 448 кбіт/с

Субтитри:
мова: англійська
тип: програмні (м'які)
формат: *.srt

Збережено оригінальні розділи, як на Blu-ray.
MediaInfo
Код:
General
Unique ID                                : 172959810189238178819855618072652549429 (0x821ED906EC7D6F2AB04FFAB75A080D35)
Complete name                            : The Usual Suspects (1995) [2xUkr,Eng sub.Eng] AVC [Hurtom & MediaClub].mkv
Format                                   : Matroska
Format version                           : Version 4 / Version 2
File size                                : 2.76 GiB
Duration                                 : 1h 46mn
Overall bit rate                         : 3 732 Kbps
Movie name                               : Звичайні підозрювані / Підозрілі особи / The Usual Suspects (1995) AVC [Hurtom & MediaClub]
Encoded date                             : UTC 2014-06-26 15:40:20
Writing application                      : mkvmerge v7.0.0 ('Where We Going') 64bit built on Jun  9 2014 15:16:27
Writing library                          : libebml v1.3.0 + libmatroska v1.4.1
DURATION                                 : 01:46:03.968000000
NUMBER_OF_FRAMES                         : 198874
NUMBER_OF_BYTES                          : 152735232
_STATISTICS_WRITING_APP                  : mkvmerge v7.0.0 ('Where We Going') 64bit built on Jun  9 2014 15:16:27
_STATISTICS_WRITING_DATE_UTC             : 2014-06-26 15:40:20
_STATISTICS_TAGS                         : BPS DURATION NUMBER_OF_FRAMES NUMBER_OF_BYTES

Video
ID                                       : 1
Format                                   : AVC
Format/Info                              : Advanced Video Codec
Format profile                           : [email protected]
Format settings, CABAC                   : Yes
Format settings, ReFrames                : 9 frames
Codec ID                                 : V_MPEG4/ISO/AVC
Duration                                 : 1h 46mn
Bit rate                                 : 2 900 Kbps
Width                                    : 1 024 pixels
Height                                   : 436 pixels
Display aspect ratio                     : 2.35:1
Frame rate mode                          : Constant
Frame rate                               : 23.976 fps
Color space                              : YUV
Chroma subsampling                       : 4:2:0
Bit depth                                : 8 bits
Scan type                                : Progressive
Bits/(Pixel*Frame)                       : 0.271
Stream size                              : 2.09 GiB (76%)
Title                                    : Звичайні підозрювані / Підозрілі особи / The Usual Suspects / Подозрительные лица (1995) AVC [MediaClub-Painter]
Writing library                          : core 130 r2273 b3065e6
Encoding settings                        : cabac=1 / ref=9 / deblock=1:-3:-3 / analyse=0x3:0x133 / me=umh / subme=11 / psy=1 / psy_rd=1.00:0.20 / mixed_ref=1 / me_range=48 / chroma_me=1 / trellis=2 / 8x8dct=1 / cqm=0 / deadzone=21,11 / fast_pskip=0 / chroma_qp_offset=-3 / threads=6 / lookahead_threads=1 / sliced_threads=0 / nr=0 / decimate=0 / interlaced=0 / bluray_compat=0 / constrained_intra=0 / bframes=9 / b_pyramid=2 / b_adapt=2 / b_bias=0 / direct=3 / weightb=1 / open_gop=0 / weightp=2 / keyint=240 / keyint_min=23 / scenecut=40 / intra_refresh=0 / rc=2pass / mbtree=0 / bitrate=2900 / ratetol=1.0 / qcomp=0.60 / qpmin=0 / qpmax=69 / qpstep=4 / cplxblur=20.0 / qblur=0.5 / ip_ratio=1.40 / pb_ratio=1.30 / aq=1:1.00
Language                                 : English
Default                                  : Yes
Forced                                   : No
DURATION                                 : 01:46:04.066000000
NUMBER_OF_FRAMES                         : 152585
NUMBER_OF_BYTES                          : 2305033461
_STATISTICS_WRITING_APP                  : mkvmerge v7.0.0 ('Where We Going') 64bit built on Jun  9 2014 15:16:27
_STATISTICS_WRITING_DATE_UTC             : 2014-06-26 15:40:20
_STATISTICS_TAGS                         : BPS DURATION NUMBER_OF_FRAMES NUMBER_OF_BYTES

Audio #1
ID                                       : 2
Format                                   : AC-3
Format/Info                              : Audio Coding 3
Mode extension                           : CM (complete main)
Format settings, Endianness              : Big
Codec ID                                 : A_AC3
Duration                                 : 1h 46mn
Bit rate mode                            : Constant
Bit rate                                 : 192 Kbps
Channel(s)                               : 2 channels
Channel positions                        : Front: L R
Sampling rate                            : 48.0 KHz
Bit depth                                : 16 bits
Compression mode                         : Lossy
Delay relative to video                  : 27ms
Stream size                              : 146 MiB (5%)
Title                                    : DVO [1+1] 2.0 192 Kbps [Hurtom-karvai0][-5ms]
Language                                 : Ukrainian
Default                                  : Yes
Forced                                   : Yes

Audio #2
ID                                       : 3
Format                                   : AC-3
Format/Info                              : Audio Coding 3
Mode extension                           : CM (complete main)
Format settings, Endianness              : Big
Codec ID                                 : A_AC3
Duration                                 : 1h 46mn
Bit rate mode                            : Constant
Bit rate                                 : 192 Kbps
Channel(s)                               : 2 channels
Channel positions                        : Front: L R
Sampling rate                            : 48.0 KHz
Bit depth                                : 16 bits
Compression mode                         : Lossy
Delay relative to video                  : 18ms
Stream size                              : 146 MiB (5%)
Title                                    : MVO [Inter] 2.0 192 Kbps [Hurtom-karvai0][-14ms]
Language                                 : Ukrainian
Default                                  : No
Forced                                   : No

Audio #3
ID                                       : 4
Format                                   : AC-3
Format/Info                              : Audio Coding 3
Mode extension                           : CM (complete main)
Format settings, Endianness              : Big
Codec ID                                 : A_AC3
Duration                                 : 1h 46mn
Bit rate mode                            : Constant
Bit rate                                 : 448 Kbps
Channel(s)                               : 6 channels
Channel positions                        : Front: L C R, Side: L R, LFE
Sampling rate                            : 48.0 KHz
Bit depth                                : 16 bits
Compression mode                         : Lossy
Stream size                              : 340 MiB (12%)
Title                                    : Original 5.1 448 Kbps
Language                                 : English
Default                                  : No
Forced                                   : No

Text
ID                                       : 5
Format                                   : UTF-8
Codec ID                                 : S_TEXT/UTF8
Codec ID/Info                            : UTF-8 Plain Text
Title                                    : Eng full
Language                                 : English
Default                                  : No
Forced                                   : No

Menu
00:00:00.000                             : :Chapter 01
00:02:17.846                             : :Chapter 02
00:05:11.644                             : :Chapter 03
00:08:02.732                             : :Chapter 04
00:12:06.058                             : :Chapter 05
00:16:56.056                             : :Chapter 06
00:18:00.078                             : :Chapter 07
00:20:20.510                             : :Chapter 08
00:21:56.064                             : :Chapter 09
00:26:03.478                             : :Chapter 10
00:28:27.414                             : :Chapter 11
00:31:20.460                             : :Chapter 12
00:34:47.043                             : :Chapter 13
00:37:28.246                             : :Chapter 14
00:39:37.958                             : :Chapter 15
00:41:26.859                             : :Chapter 16
00:43:07.208                             : :Chapter 17
00:46:15.439                             : :Chapter 18
00:50:39.661                             : :Chapter 19
00:51:56.321                             : :Chapter 20
00:57:01.709                             : :Chapter 21
00:59:13.258                             : :Chapter 22
01:04:44.213                             : :Chapter 23
01:07:07.273                             : :Chapter 24
01:13:08.716                             : :Chapter 25
01:14:18.036                             : :Chapter 26
01:22:31.738                             : :Chapter 27
01:23:37.804                             : :Chapter 28
01:28:40.939                             : :Chapter 29
01:32:39.178                             : :Chapter 30
01:37:55.744                             : :Chapter 31
01:42:39.528                             : :Chapter 32
01:46:03.814                             : :Chapter 33




Джерела та подяки: &
ріп відео, оригінальні звук та субтитри - Painter (MediaClub); українські доріжки - karvai0 - зведення, Tanat13 (1), xslim, OlegCena, MAKAPOHHIK, slavik_v_z, POMEO (2) - запис з ТБ; рубрика "Арґумент-кіно", опис - karvai0 (всі - Гуртом).

ЗАЛИШАЙТЕСЬ ЯКОМОГА ДОВШЕ НА РОЗДАЧІ!

СКАЧАВ САМ - ДАЙ СКАЧАТИ ІНШИМ


Срібний реліз (на рейтинг впливає 50% завантаженого)
 Трекер:    Зареєстрований   

Завантажити / скачати фільм українською



відео для новачків



 Зареєстрований:   2014-06-26 18:01
 Розмір:   2.76 GB 
 Оцінка фільму:   7.2/10 (Голосів: 34)
   
Maters 
VIP


З нами з: 27.03.12
Востаннє: 04.12.16
Повідомлень: 1159

2016-01-03 22:57  
Нічого собі й оцінки гуртомівці тут поставили.... ????
Фільм просто шикарний 10/10

Anonymous 







2016-01-03 23:12  
Maters, це не гуртомівці, а такий собі сімба велкамбекович тулить одиниці в релізи "неугодних" своїм десятком ботів.
bboy 
Новенький


З нами з: 31.03.12
Востаннє: 23.03.16
Повідомлень: 4

2016-02-23 19:01  
Де можна Знайти фільм Українською А як же Боб???
Anonymous 







2016-02-23 23:11  
bboy, поки що, схоже, ніде.
Ваш часовий пояс: GMT + 2 Години

Нова тема   Відповісти