Завантажити та скачати торренти українською


Останній меч самурая / Mibu gishi den / When the Last Sword is Drawn (2003) AVC 2xUkr/Jap | Sub Eng

Нові коментарі

Нова тема   Відповісти
Автор Повідомлення
Anonymous 







2014-06-25 19:33  
Останній меч самурая / Mibu gishi den / When the Last Sword is Drawn (2003) AVC 2xUkr/Jap | Sub Eng



Жанр: драма
Країна: Японія



Кінокомпанія: TV Tokyo, TV Osaka, DENTSU Music And Entertainment
Режисер: Йодзіро Такіта / Yôjirô Takita
Актори: Кічі Накаї / Kiichi Nakai, Коічі Сато / Koichi Sato, Юі Нацукава / Yui Natsukawa, Такехіро Мурата / Takehiro Murata, Мікі Накатані / Miki Nakatani, Юрі Міяке / Yûji Miyake, Масайоші Ханеда / Masayoshi Haneda, Йосінорі Хірума / Yoshinori Hiruma, Кеісуке Хорібе / Keisuke Horibe, Ацуші Іто / Atsushi Ito

Сюжет:
Середина 19 століття. Могутність сьогунів слабшає. Історія феодального лицарства Японії, так званих самураїв, підходить до завершення. Цей драматичний перелом більше всього стає відчутним на Кіото, де находиться гарнізон його захисників. Багатьом потрібно зробити вибір - перейти на бік повсталих або пожертвувати собою. Головний герой картини, Каньітіро - самурай останнього призову Есімур, переходить на службу до Сеґуну, військовому правителю Японії, покинувши власний клан. За законом честі самураїв - воїн вірний своєму володарю до кінця. Але у Каньітіро складаються такі життєві обставини, які змушують вчинити інакше.


Вікова категорія: 16+

Тривалість: 02:17:35
Якість: AVC
Відео:
кодек:
розмір кадру: 1016x576
бітрейт: 3500 кбіт/с

Аудіо # 1:
мова: українська - Студія 1+1
переклад: двоголосий закадровий
кодек: 2.0
бітрейт: 192 кбіт/с

Аудіо # 2:
мова: українська - Так Треба Продакшн
переклад: багатоголосий закадровий
кодек: 2.0
бітрейт: 192 кбіт/с

Аудіо # 3:
мова: японська
переклад: оригінал
кодек: 5.1
бітрейт: 448 кбіт/с

Субтитри:
мова: англійська
тип: програмні (м'які)
формат: *.srt

Збережено оригінальні розділи, як на Blu-ray.
MediaInfo та log
---[Information] [01.07.2013 5:31:01] [info]: frame I:1266 Avg QP:18.00 size: 87427
---[Information] [01.07.2013 5:31:01] [info]: frame P:36637 Avg QP:20.81 size: 37240
---[Information] [01.07.2013 5:31:01] [info]: frame B:160024 Avg QP:22.39 size: 13357
Код:
General
Unique ID                                : 238674857893888279925948115365657284738 (0xB38F1B073A095714BB5F1ED04CCB9082)
Complete name                            : Mibu gishi den (2003) [2xUkr,Jap sub.Eng] AVC [Hurtom & MediaClub].mkv
Format                                   : Matroska
Format version                           : Version 4 / Version 2
File size                                : 4.17 GiB
Duration                                 : 2h 17mn
Overall bit rate                         : 4 335 Kbps
Movie name                               : Останній меч самурая / Mibu gishi den / When the Last Sword is Drawn (2003) AVC [Hurtom & MediaClub]
Encoded date                             : UTC 2014-06-25 17:14:52
Writing application                      : mkvmerge v7.0.0 ('Where We Going') 64bit built on Jun  9 2014 15:16:27
Writing library                          : libebml v1.3.0 + libmatroska v1.4.1
DURATION                                 : 02:17:34.240000000
NUMBER_OF_FRAMES                         : 257945
NUMBER_OF_BYTES                          : 198101760
_STATISTICS_WRITING_APP                  : mkvmerge v7.0.0 ('Where We Going') 64bit built on Jun  9 2014 15:16:27
_STATISTICS_WRITING_DATE_UTC             : 2014-06-25 17:14:52
_STATISTICS_TAGS                         : BPS DURATION NUMBER_OF_FRAMES NUMBER_OF_BYTES

Video
ID                                       : 1
Format                                   : AVC
Format/Info                              : Advanced Video Codec
Format profile                           : [email protected]
Format settings, CABAC                   : Yes
Format settings, ReFrames                : 9 frames
Codec ID                                 : V_MPEG4/ISO/AVC
Duration                                 : 2h 17mn
Bit rate                                 : 3 500 Kbps
Width                                    : 1 016 pixels
Height                                   : 576 pixels
Display aspect ratio                     : 16:9
Frame rate mode                          : Constant
Frame rate                               : 23.976 fps
Color space                              : YUV
Chroma subsampling                       : 4:2:0
Bit depth                                : 8 bits
Scan type                                : Progressive
Bits/(Pixel*Frame)                       : 0.249
Stream size                              : 3.28 GiB (79%)
Title                                    : Останній меч самурая / Mibu gishi den / When the Last Sword is Drawn / Последний меч самурая AVC [MediaClub-kaspr]
Writing library                          : core 133 r2334 a3ac64b
Encoding settings                        : cabac=1 / ref=9 / deblock=1:-3:-3 / analyse=0x3:0x133 / me=umh / subme=11 / psy=1 / psy_rd=1.00:0.10 / mixed_ref=1 / me_range=32 / chroma_me=1 / trellis=2 / 8x8dct=1 / cqm=0 / deadzone=21,11 / fast_pskip=0 / chroma_qp_offset=-3 / threads=12 / lookahead_threads=3 / sliced_threads=0 / nr=0 / decimate=0 / interlaced=0 / bluray_compat=0 / constrained_intra=0 / bframes=10 / b_pyramid=2 / b_adapt=2 / b_bias=0 / direct=3 / weightb=1 / open_gop=0 / weightp=2 / keyint=240 / keyint_min=22 / scenecut=40 / intra_refresh=0 / rc=2pass / mbtree=0 / bitrate=3500 / ratetol=1.0 / qcomp=0.60 / qpmin=0 / qpmax=69 / qpstep=4 / cplxblur=20.0 / qblur=0.5 / ip_ratio=1.40 / pb_ratio=1.30 / aq=1:1.00
Language                                 : Japanese
Default                                  : Yes
Forced                                   : Yes
DURATION                                 : 02:17:35.206000000
NUMBER_OF_FRAMES                         : 197927
NUMBER_OF_BYTES                          : 3612442320
_STATISTICS_WRITING_APP                  : mkvmerge v7.0.0 ('Where We Going') 64bit built on Jun  9 2014 15:16:27
_STATISTICS_WRITING_DATE_UTC             : 2014-06-25 17:14:52
_STATISTICS_TAGS                         : BPS DURATION NUMBER_OF_FRAMES NUMBER_OF_BYTES

Audio #1
ID                                       : 2
Format                                   : AC-3
Format/Info                              : Audio Coding 3
Mode extension                           : CM (complete main)
Format settings, Endianness              : Big
Codec ID                                 : A_AC3
Duration                                 : 2h 17mn
Bit rate mode                            : Constant
Bit rate                                 : 192 Kbps
Channel(s)                               : 2 channels
Channel positions                        : Front: L R
Sampling rate                            : 48.0 KHz
Bit depth                                : 16 bits
Compression mode                         : Lossy
Stream size                              : 189 MiB (4%)
Title                                    : DVO [1+1] 2.0 192 Kbps [Hurtom-karvai0]
Language                                 : Ukrainian
Default                                  : Yes
Forced                                   : Yes

Audio #2
ID                                       : 3
Format                                   : AC-3
Format/Info                              : Audio Coding 3
Mode extension                           : CM (complete main)
Format settings, Endianness              : Big
Codec ID                                 : A_AC3
Duration                                 : 2h 17mn
Bit rate mode                            : Constant
Bit rate                                 : 192 Kbps
Channel(s)                               : 2 channels
Channel positions                        : Front: L R
Sampling rate                            : 48.0 KHz
Bit depth                                : 16 bits
Compression mode                         : Lossy
Stream size                              : 189 MiB (4%)
Title                                    : MVO [Ukraina] 2.0 192 Kbps [Hurtom-karvai0]
Language                                 : Ukrainian
Default                                  : No
Forced                                   : No

Audio #3
ID                                       : 4
Format                                   : AC-3
Format/Info                              : Audio Coding 3
Mode extension                           : CM (complete main)
Format settings, Endianness              : Big
Codec ID                                 : A_AC3
Duration                                 : 2h 17mn
Bit rate mode                            : Constant
Bit rate                                 : 448 Kbps
Channel(s)                               : 6 channels
Channel positions                        : Front: L C R, Side: L R, LFE
Sampling rate                            : 48.0 KHz
Bit depth                                : 16 bits
Compression mode                         : Lossy
Stream size                              : 441 MiB (10%)
Title                                    : Original 5.1 448 Kbps
Language                                 : Japanese
Default                                  : No
Forced                                   : No

Text
ID                                       : 5
Format                                   : UTF-8
Codec ID                                 : S_TEXT/UTF8
Codec ID/Info                            : UTF-8 Plain Text
Title                                    : Eng full
Language                                 : English
Default                                  : No
Forced                                   : No

Menu
00:00:00.000                             : en:Chapter 01
00:05:00.000                             : en:Chapter 02
00:10:00.000                             : en:Chapter 03
00:15:00.000                             : en:Chapter 04
00:20:00.000                             : en:Chapter 05
00:25:00.000                             : en:Chapter 06
00:30:00.000                             : en:Chapter 07
00:35:00.000                             : en:Chapter 08
00:40:00.000                             : en:Chapter 09
00:45:00.000                             : en:Chapter 10
00:50:00.000                             : en:Chapter 11
00:55:00.000                             : en:Chapter 12
01:00:00.000                             : en:Chapter 13
01:05:00.000                             : en:Chapter 14
01:10:00.000                             : en:Chapter 15
01:15:00.000                             : en:Chapter 16
01:20:00.000                             : en:Chapter 17
01:25:00.000                             : en:Chapter 18
01:30:00.000                             : en:Chapter 19
01:35:00.000                             : en:Chapter 20
01:40:00.000                             : en:Chapter 21
01:45:00.000                             : en:Chapter 22
01:50:00.000                             : en:Chapter 23
01:55:00.000                             : en:Chapter 24
02:00:00.000                             : en:Chapter 25
02:05:00.000                             : en:Chapter 26
02:10:00.000                             : en:Chapter 27
02:15:00.000                             : en:Chapter 28




Джерела та подяки: &
ріп відео, оригінальні звук та субтитри - kaspr (MediaClub); українські доріжки - karvai0 - зведення, Tanat13 - запис з ТБ (обоє - Гуртом).


ЗАЛИШАЙТЕСЬ ЯКОМОГА ДОВШЕ НА РОЗДАЧІ!

СКАЧАВ САМ - ДАЙ СКАЧАТИ ІНШИМ


Срібний реліз (на рейтинг впливає 50% завантаженого)
 Трекер:    Зареєстрований   

Завантажити / скачати фільм українською



відео для новачків



 Зареєстрований:   2014-06-25 19:33
 Розмір:   4.17 GB 
 Оцінка фільму:   4.6/10 (Голосів: 17)
   
Ваш часовий пояс: GMT + 2 Години

Нова тема   Відповісти