Завантажити та скачати торренти українською


Руслана | Дискографія (11 альбомів) (1998-2013) [FLAC] | Pop

Нові коментарі

Нова тема   Відповісти
Автор Повідомлення
Vladdrako17 
Свій


З нами з: 25.08.11
Востаннє: 25.09.16
Повідомлень: 129

2014-06-24 19:36  
Руслана | Дискографія (11 альбомів) (1998-2013) [FLAC] | Pop

Руслана | Дискографія (11 альбомів) (1998-2013) [FLAC] | Pop


Стиль: Pop
Країна, місто: Україна, Львів
Сайти: Офіційний сайт
Видавець: Comp music
Виконавці: Руслана Лижичко
Пісні:
1998 - Мить весни. Дзвінкий вітер Live



    01. Весняна Інтродукція
    02. Мить Весни
    03. Світанок
    04. Світло Й Тінь
    05. Остання Подорож
    06. Балада Про Принцесу (Remake)
    07. Щастя
    08. Ти
    09. Тік-Так Колискова
    10. Вам І Не Снилося (Live)
    11. Остання Подорож (Live)
    12. Ти (Live)
    13. Світанок (Live)
    14. Три Тисячі Років Тому... (Live)
    15. Втрачений Рай (Live)
    16. Полум'я Дощу (Live)
    17. Луна (Live)
    18. Балада Про Принцесу (Live)
    19. Ой, Летіли Дикі Гуси


Тривалість: 01:13:01
Мова: українська
Аудіо-кодек: FLAC
Бітрейт: 630-1048 кб/с
Видавець: Comp music
Спектральний аналіз


















2003 - Добрий вечір, тобі...



    01. Руслана - Добрий вечір
    02. Тарас Чубай - Миколай Бородатий
    03. Євгенія Власова - Сипле Сніг
    04. Ані Лорак - Різдво, Різдво
    05. Віктор Павлік - Нова радість
    06. Таїсія Повалій - Місяць
    07. Гайдамаки - Св'ят вечір
    08. Руслана - Добрий вечір
    09. Олександр Пономарьов - Радуйся, Світ
    10. Руслана, Тарас Чубай, Піккардійська терція - Утішмося
    11. Руслана, Олександр Пономарьов, Таїсія Повалій, Євгенія Власова, Ані Лорак, Віктор Павлік, Тарас Чубай - Зима
    12. Руслана - Тиха ніч
    13. Руслана - Добрий Вечір


Тривалість: 00:44:05
Мова: українська
Аудіо-кодек: FLAC
Бітрейт: 775-1085 кб/с
Видавець: Comp music
Спектральний аналіз












2004 - Дикі Танці+ Євробонус



    01. Ой, заграй ми, музиченьку
    02. Знаю я
    03. Плес
    04. Аркан
    05. Скажи менi
    06. Коломийка
    07. Гуцулка
    08. Пiвнiчна
    09. Це - любов
    10. Я тебе люблю
    11. Знаю я (remix CJ Nekrasov)
    12. Ой, заграй ми, музиченьку deep mix (CJ Nekrasov remix))
    13. Скажи мені house remix (CJ Nekrasov remix)
    14. Аркан wave mix (CJ Nekrasov remix)
    15. Коломийка (CJ Nekrasovs remix)
    16. Скажи мені & phatt edition (CJ Nekrasov remix)
    17. Аркан euro house remix (CJ Nekrasov remix)
    18. Ой, заграй ми, музиченьку (wild dance edition)
    19. Дикі Танці (instrumental)


Тривалість: 01:05:48
Мова: українська
Аудіо-кодек: FLAC
Бітрейт: 708-1051 кб/с
Видавець: Comp music
EAC
Exact Audio Copy V0.99 prebeta 5 from 4. May 2009

Звіт EAC про видобування, котре виконане 19. серпня 2009, 19:29

Руслана / Дикі Танці

Дисковод: HL-DT-STDVDRAM GSA-H10N Adapter: 4 ID: 0

Режим читання : Точний
Використати точний потік : Так
Вимкнути аудіо кеш : Так
Застосувати мітки C2 : Ні

Корекція зміщення при читанні : 667
Екстрачитання областей Lead-in і Lead-out : Ні
Заповнення пропущених семплів тишею : Так
Видалення блоків з тишею на початку і кінці : Ні
При вирахуванні CRC використовувались нульові семпли : Так
Використаний інтерфейс : Встановлений зовнішній ASPI-інтерфейс
Поводження з проміжками : Приєднано до попереднього трека

Застосований вихідний формат : Кодер Користувача
Обраний бітрейт : 1024 kBit/s
Якість : Високий
Додати тег ID3 : Ні
Компресор командного рядка : C:\Program Files\FLAC\flac.exe
Додаткові параметри командного рядка : -6 -V -T "ARTIST=%a" -T "TITLE=%t" -T "ALBUM=%g" -T "DATE=%y" -T "TRACKNUMBER=%n" -T "GENRE=%m" -T "COMMENT=%e" %s -o %d

TOC видобутого CD

Трек | Старт | Довжина | Початковий сектор | Кінцевий сектор
------------------------------------------------------------------
1 | 0:00.00 | 3:56.14 | 0 | 17713
2 | 3:56.14 | 3:11.19 | 17714 | 32057
3 | 7:07.33 | 3:33.74 | 32058 | 48106
4 | 10:41.32 | 3:41.01 | 48107 | 64682
5 | 14:22.33 | 4:15.66 | 64683 | 83873
6 | 18:38.24 | 4:01.09 | 83874 | 101957
7 | 22:39.33 | 3:41.17 | 101958 | 118549
8 | 26:20.50 | 4:04.30 | 118550 | 136879
9 | 30:25.05 | 3:35.46 | 136880 | 153050
10 | 34:00.51 | 2:51.02 | 153051 | 165877
11 | 36:51.53 | 3:57.66 | 165878 | 183718
12 | 40:49.44 | 3:44.08 | 183719 | 200526
13 | 44:33.52 | 3:21.72 | 200527 | 215673
14 | 47:55.49 | 2:52.16 | 215674 | 228589
15 | 50:47.65 | 4:35.47 | 228590 | 249261
16 | 55:23.37 | 3:26.45 | 249262 | 264756
17 | 58:50.07 | 3:56.68 | 264757 | 282524
18 | 62:47.00 | 3:01.10 | 282525 | 296109

Трек 1

Ім'я файлу D:\Music\Audio CD's\EAC\Руслана (Дикі Танці)2004 FLAC\01 - Ой заграй ми, музиченьку (joy dance).wav

Довжина проміжка 0:00:02.00

Піковий рівень 100.0 %
Якість трека 100.0 %
CRC тесту A34580DE
CRC копії A34580DE
Трек не присутній в базі Точного Видобування
Копіювання... OK

Трек 2

Ім'я файлу D:\Music\Audio CD's\EAC\Руслана (Дикі Танці)2004 FLAC\02 - Знаю я (drive dance).wav

Піковий рівень 100.0 %
Якість трека 99.9 %
CRC тесту 7F217D76
CRC копії 7F217D76
Трек не присутній в базі Точного Видобування
Копіювання... OK

Трек 3

Ім'я файлу D:\Music\Audio CD's\EAC\Руслана (Дикі Танці)2004 FLAC\03 - Плєс (flute dance).wav

Піковий рівень 100.0 %
Якість трека 100.0 %
CRC тесту 5383F781
CRC копії 5383F781
Трек не присутній в базі Точного Видобування
Копіювання... OK

Трек 4

Ім'я файлу D:\Music\Audio CD's\EAC\Руслана (Дикі Танці)2004 FLAC\04 - Аркан (extreme dance).wav

Піковий рівень 96.4 %
Якість трека 100.0 %
CRC тесту 0125109E
CRC копії 0125109E
Трек не присутній в базі Точного Видобування
Копіювання... OK

Трек 5

Ім'я файлу D:\Music\Audio CD's\EAC\Руслана (Дикі Танці)2004 FLAC\05 - Скажи мені (love dance).wav

Піковий рівень 96.4 %
Якість трека 100.0 %
CRC тесту EBC01CBD
CRC копії EBC01CBD
Трек не присутній в базі Точного Видобування
Копіювання... OK

Трек 6

Ім'я файлу D:\Music\Audio CD's\EAC\Руслана (Дикі Танці)2004 FLAC\06 - Коломийка (crazy dance).wav

Піковий рівень 96.1 %
Якість трека 100.0 %
CRC тесту FC68442F
CRC копії FC68442F
Трек не присутній в базі Точного Видобування
Копіювання... OK

Трек 7

Ім'я файлу D:\Music\Audio CD's\EAC\Руслана (Дикі Танці)2004 FLAC\07 - Гуцулка (mystic dance).wav

Піковий рівень 98.2 %
Якість трека 99.9 %
CRC тесту B0195983
CRC копії B0195983
Трек не присутній в базі Точного Видобування
Копіювання... OK

Трек 8

Ім'я файлу D:\Music\Audio CD's\EAC\Руслана (Дикі Танці)2004 FLAC\08 - Північна (northern dance).wav

Піковий рівень 98.6 %
Якість трека 99.9 %
CRC тесту BC444011
CRC копії BC444011
Трек не присутній в базі Точного Видобування
Копіювання... OK

Трек 9

Ім'я файлу D:\Music\Audio CD's\EAC\Руслана (Дикі Танці)2004 FLAC\09 - Це - любов (chill out).wav

Піковий рівень 97.9 %
Якість трека 100.0 %
CRC тесту 35444EBD
CRC копії 35444EBD
Трек не присутній в базі Точного Видобування
Копіювання... OK

Трек 10

Ім'я файлу D:\Music\Audio CD's\EAC\Руслана (Дикі Танці)2004 FLAC\10 - Я тебе люблю (balade).wav

Піковий рівень 95.7 %
Якість трека 99.9 %
CRC тесту 6F0EA74E
CRC копії 6F0EA74E
Трек не присутній в базі Точного Видобування
Копіювання... OK

Трек 11

Ім'я файлу D:\Music\Audio CD's\EAC\Руслана (Дикі Танці)2004 FLAC\11 - Ой заграй ми, музиченьку (deep mix).wav

Піковий рівень 97.0 %
Якість трека 100.0 %
CRC тесту D3604E57
CRC копії D3604E57
Трек не присутній в базі Точного Видобування
Копіювання... OK

Трек 12

Ім'я файлу D:\Music\Audio CD's\EAC\Руслана (Дикі Танці)2004 FLAC\12 - Скажи мені (house remix).wav

Піковий рівень 100.0 %
Якість трека 99.9 %
CRC тесту 33B566CC
CRC копії 33B566CC
Трек не присутній в базі Точного Видобування
Копіювання... OK

Трек 13

Ім'я файлу D:\Music\Audio CD's\EAC\Руслана (Дикі Танці)2004 FLAC\13 - Аркан new (wave mix).wav

Піковий рівень 97.7 %
Якість трека 100.0 %
CRC тесту A97912C6
CRC копії A97912C6
Трек не присутній в базі Точного Видобування
Копіювання... OK

Трек 14

Ім'я файлу D:\Music\Audio CD's\EAC\Руслана (Дикі Танці)2004 FLAC\14 - Коломийка (disco house remix).wav

Піковий рівень 99.1 %
Якість трека 100.0 %
CRC тесту 90BD5987
CRC копії 90BD5987
Трек не присутній в базі Точного Видобування
Копіювання... OK

Трек 15

Ім'я файлу D:\Music\Audio CD's\EAC\Руслана (Дикі Танці)2004 FLAC\15 - Скажи мені (hard&phatt edition).wav

Піковий рівень 97.0 %
Якість трека 99.9 %
CRC тесту 35B711A8
CRC копії 35B711A8
Трек не присутній в базі Точного Видобування
Копіювання... OK

Трек 16

Ім'я файлу D:\Music\Audio CD's\EAC\Руслана (Дикі Танці)2004 FLAC\16 - Аркан euro (house remix).wav

Піковий рівень 97.7 %
Якість трека 100.0 %
CRC тесту 10156EA8
CRC копії 10156EA8
Трек не присутній в базі Точного Видобування
Копіювання... OK

Трек 17

Ім'я файлу D:\Music\Audio CD's\EAC\Руслана (Дикі Танці)2004 FLAC\17 - Ой заграй ми, музиченьку (wild dance edition).wav

Піковий рівень 96.4 %
Якість трека 100.0 %
CRC тесту 91A56414
CRC копії 91A56414
Трек не присутній в базі Точного Видобування
Копіювання... OK

Трек 18

Ім'я файлу D:\Music\Audio CD's\EAC\Руслана (Дикі Танці)2004 FLAC\18 - Дикі танці (instrumental version of Euro Song Contest).wav

Піковий рівень 99.6 %
Якість трека 100.0 %
CRC тесту A91499F2
CRC копії A91499F2
Трек не присутній в базі Точного Видобування
Копіювання... OK

Жодного трека немає в базі AccurateRip

Помилки не траплялися

Кінець звіту
Спектральний аналіз

















2004 - Wild Dances (Single)



    01. Дикі Танці (radio edit)
    02. Wild Dances (album version)
    03. Дикі Танці (harem's pop mix)
    04. Wild Dances (harem's pop mix)
    05. Wild Dances (exclusive complete version)
    06. Дикі Танці (harem's club mix)
    07. Wild Dances (harem's club mix)
    08. Дикі Танці (harem's percussion mix)
    09. Wild Dances (harem's percussion mix)
    10. Wild Dances (break mix)
    11. Wild Dances (groove mix)
    12. Wild Dances (instrumental version)
    13. Wild Dances (part II) ( instrumental version)


Тривалість: 00:42:51
Мова: українська (1,3,6,8,10,11), англійська (2,4,5,7,9-13)
Аудіо-кодек: FLAC
Бітрейт: 780-1055 кб/с
Видавець: Comp music
EAC
Exact Audio Copy V0.99 prebeta 4 from 23. January 2008

Отчёт EAC об извлечении, выполненном 23. июля 2010, 12:50

Ruslana / Wild Dances (single)

Дисковод: Optiarc DVD RW AD-7203A Adapter: 3 ID: 0

Режим чтения : Достоверность
Использование точного потока : Да
Отключение кэша аудио : Да
Использование указателей C2 : Нет

Коррекция смещения при чтении : 48
Способность читать области Lead-in и Lead-out : Нет
Заполнение пропущенных сэмплов тишиной : Да
Удаление блоков с тишиной в начале и конце : Нет
При вычислениях CRC использовались нулевые сэмплы : Да
Интерфейс : Встроенный Win32-интерфейс для Win NT/2000

Выходной формат : Внутренние WAV-операции
Формат сэмплов : 44.100 Гц; 16 бит; стерео

TOC извлечённого CD

Трек | Старт | Длительность | Начальный сектор | Конечный сектор
---------------------------------------------------------------------
1 | 0:00.00 | 2:57.35 | 0 | 13309
2 | 2:57.35 | 3:03.28 | 13310 | 27062
3 | 6:00.63 | 2:50.48 | 27063 | 39860
4 | 8:51.36 | 2:50.44 | 39861 | 52654
5 | 11:42.05 | 4:58.38 | 52655 | 75042
6 | 16:40.43 | 3:18.15 | 75043 | 89907
7 | 19:58.58 | 3:18.12 | 89908 | 104769
8 | 23:16.70 | 2:54.03 | 104770 | 117822
9 | 26:10.73 | 2:54.13 | 117823 | 130885
10 | 29:05.11 | 3:27.42 | 130886 | 146452
11 | 32:32.53 | 3:18.32 | 146453 | 161334
12 | 35:51.10 | 3:03.07 | 161335 | 175066
13 | 38:54.17 | 3:56.62 | 175067 | 192828
14 | 45:23.04 | 29:46.05 | 204229 | 338183

Характеристики диапазона извлечения и сообщения об ошибках

Выбранный диапазон

Имя файла D:\Lossless\Руслана\Ruslana - Wild Dances (single)\Ruslana - Wild Dances (single).wav

Пиковый уровень 100.0 %
Качество диапазона 100.0 %
CRC теста 81665217
CRC копии 81665217
Копирование... OK

Ошибок не произошло

AccurateRip: сводка

Трек 1 нет в базе данных
Трек 2 нет в базе данных
Трек 3 нет в базе данных
Трек 4 нет в базе данных
Трек 5 нет в базе данных
Трек 6 нет в базе данных
Трек 7 нет в базе данных
Трек 8 нет в базе данных
Трек 9 нет в базе данных
Трек 10 нет в базе данных
Трек 11 нет в базе данных
Трек 12 нет в базе данных
Трек 13 нет в базе данных

Ни одного трека нет в базе AccurateRip

Конец отчёта
Спектральний аналіз












2004 - Wild Dances



    01. Wild Dances
    02. Dance With The Wolves
    03. Accordion Intro
    04. The Same Star
    05. Play, Musician
    06. Like A Hurricane
    07. The Tango We Used To Dance
    08. Wild Dances (harem's club mix)
    09. Wild Dances (part 2)
    10. Wild Passion
    11. Arcan (original ukrainian version)
    12. Kolomyika (original ukrainian version)
    13. Hutsul Girl (original ukrainian version)
    14. Play, Musician (deep mix)
    15. Wild Dances (harem's percussion mix)


Тривалість: 00:52:47
Мова: українська (11-13), англійська (1-10,14,15)
Аудіо-кодек: FLAC
Бітрейт: 729-1053 кб/с
Видавець: Comp music
EAC
Exact Audio Copy V0.99 prebeta 4 from 23. January 2008

Отчёт EAC об извлечении, выполненном 23. июля 2010, 14:08

Ruslana / Wild Dances

Дисковод: Optiarc DVD RW AD-7203A Adapter: 3 ID: 0

Режим чтения : Достоверность
Использование точного потока : Да
Отключение кэша аудио : Да
Использование указателей C2 : Нет

Коррекция смещения при чтении : 48
Способность читать области Lead-in и Lead-out : Нет
Заполнение пропущенных сэмплов тишиной : Да
Удаление блоков с тишиной в начале и конце : Нет
При вычислениях CRC использовались нулевые сэмплы : Да
Интерфейс : Встроенный Win32-интерфейс для Win NT/2000

Выходной формат : Внутренние WAV-операции
Формат сэмплов : 44.100 Гц; 16 бит; стерео

TOC извлечённого CD

Трек | Старт | Длительность | Начальный сектор | Конечный сектор
---------------------------------------------------------------------
1 | 0:00.00 | 3:03.15 | 0 | 13739
2 | 3:03.15 | 3:59.42 | 13740 | 31706
3 | 7:02.57 | 1:01.29 | 31707 | 36310
4 | 8:04.11 | 4:21.00 | 36311 | 55885
5 | 12:25.11 | 3:55.64 | 55886 | 73574
6 | 16:21.00 | 2:38.05 | 73575 | 85429
7 | 18:59.05 | 3:47.24 | 85430 | 102478
8 | 22:46.29 | 3:18.12 | 102479 | 117340
9 | 26:04.41 | 4:01.27 | 117341 | 135442
10 | 30:05.68 | 4:10.34 | 135443 | 154226
11 | 34:16.27 | 3:40.34 | 154227 | 170760
12 | 37:56.61 | 4:02.67 | 170761 | 188977
13 | 41:59.53 | 3:55.57 | 188978 | 206659
14 | 45:55.35 | 4:00.06 | 206660 | 224665
15 | 49:55.41 | 2:52.13 | 224666 | 237578

Характеристики диапазона извлечения и сообщения об ошибках

Выбранный диапазон

Имя файла D:\Lossless\Руслана\Ruslana - Wild Dances\Ruslana - Wild Dances.wav

Пиковый уровень 100.0 %
Качество диапазона 100.0 %
CRC теста D9A146AB
CRC копии D9A146AB
Копирование... OK

Ошибок не произошло

AccurateRip: сводка

Трек 1 нет в базе данных
Трек 2 нет в базе данных
Трек 3 нет в базе данных
Трек 4 нет в базе данных
Трек 5 нет в базе данных
Трек 6 нет в базе данных
Трек 7 нет в базе данных
Трек 8 нет в базе данных
Трек 9 нет в базе данных
Трек 10 нет в базе данных
Трек 11 нет в базе данных
Трек 12 нет в базе данных
Трек 13 нет в базе данных
Трек 14 нет в базе данных
Трек 15 нет в базе данных

Ни одного трека нет в базе AccurateRip

Конец отчёта
Спектральний аналіз














2005 - Club'in



    01. Wild Passion (dj small & lv club mix)
    02. Dance With The Wolves (harem disco mix (turkey))
    03. Hey, Go With Me (dj small & lv club mix)
    04. Play, Musician (treat brothers happy dub)
    05. Wind Song (michael nekrasov zebra mix)
    06. Wild Dances (dj small & lv club mix)
    07. The Same Star (treat brothers re-pop)
    08. The Tango We Used To Dance (dj small & lv club mix)
    09. Dance With The Wolves (treat brothers remix)
    10. The Same Star (dj zebra & sergei repin fusion house remix)
    11. Wind Song (dj small & lv club mix)
    12. Wild Dances (c.y.t. vs dj nick 2005 club edit (austria))


Тривалість: 01:18:52
Мова: українська (4), англійська (1-3,5-12)
Аудіо-кодек: FLAC
Бітрейт: 955-1090 кб/с
Видавець: Comp music
EAC
Exact Audio Copy V0.99 prebeta 4 from 23. January 2008

Отчёт EAC об извлечении, выполненном 23. июля 2010, 11:19

Ruslana / Club'in

Дисковод: Optiarc DVD RW AD-7203A Adapter: 3 ID: 0

Режим чтения : Достоверность
Использование точного потока : Да
Отключение кэша аудио : Да
Использование указателей C2 : Нет

Коррекция смещения при чтении : 48
Способность читать области Lead-in и Lead-out : Нет
Заполнение пропущенных сэмплов тишиной : Да
Удаление блоков с тишиной в начале и конце : Нет
При вычислениях CRC использовались нулевые сэмплы : Да
Интерфейс : Встроенный Win32-интерфейс для Win NT/2000

Выходной формат : Внутренние WAV-операции
Формат сэмплов : 44.100 Гц; 16 бит; стерео

TOC извлечённого CD

Трек | Старт | Длительность | Начальный сектор | Конечный сектор
---------------------------------------------------------------------
1 | 0:00.00 | 7:13.16 | 0 | 32490
2 | 7:13.16 | 4:17.73 | 32491 | 51838
3 | 11:31.14 | 8:25.40 | 51839 | 89753
4 | 19:56.54 | 7:39.63 | 89754 | 124241
5 | 27:36.42 | 5:13.47 | 124242 | 147763
6 | 32:50.14 | 8:48.26 | 147764 | 187389
7 | 41:38.40 | 3:48.34 | 187390 | 204523
8 | 45:26.74 | 8:59.55 | 204524 | 245003
9 | 54:26.54 | 6:43.74 | 245004 | 275302
10 | 61:10.53 | 5:51.19 | 275303 | 301646
11 | 67:01.72 | 7:42.48 | 301647 | 336344
12 | 74:44.45 | 4:08.10 | 336345 | 354954

Характеристики диапазона извлечения и сообщения об ошибках

Выбранный диапазон

Имя файла D:\Lossless\Ruslana - Club'in\Ruslana - Club'in.wav

Пиковый уровень 99.8 %
Качество диапазона 100.0 %
CRC теста CD73A927
CRC копии CD73A927
Копирование... OK

Ошибок не произошло

AccurateRip: сводка

Трек 1 нет в базе данных
Трек 2 нет в базе данных
Трек 3 нет в базе данных
Трек 4 точное извлечение (доверие 1) [9C6E9137]
Трек 5 нет в базе данных
Трек 6 нет в базе данных
Трек 7 точное извлечение (доверие 1) [A980E837]
Трек 8 нет в базе данных
Трек 9 нет в базе данных
Трек 10 нет в базе данных
Трек 11 нет в базе данных
Трек 12 нет в базе данных

2 трек(и) скопированы точно
0 трек(и) не содержатся в базе AccurateRip

Некоторые треки не прошли проверку на точность

Конец отчёта
Спектральний аналіз











2005 - The Same Star (Single)



    01. The Same Star (intro)
    02. The Same Star (album version)
    03. Скажи Мені (The Same Star) (ukrainian album version)
    04. Скажи Мені (The Same Star) (house mix by CJ Nekrasoff)
    05. Скажи Мені (The Same Star) (hard & phatt mix by CJ Nekrasoff)
    06. The Same Star (REDCo's club mix)
    07. The Same Star (instrumental)
    08. The Same Star (brass and strings mix)
    09. The Same Star (acapella mix)


Тривалість: 00:35:24
Мова: українська (3-5), англійська (1,2,6-9)
Аудіо-кодек: FLAC
Бітрейт: 608-1058 кб/с
Видавець: Comp music
EAC
Exact Audio Copy V0.99 prebeta 4 from 23. January 2008

Отчёт EAC об извлечении, выполненном 23. июля 2010, 13:28

Ruslana / The Same Star (single)

Дисковод: Optiarc DVD RW AD-7203A Adapter: 3 ID: 0

Режим чтения : Достоверность
Использование точного потока : Да
Отключение кэша аудио : Да
Использование указателей C2 : Нет

Коррекция смещения при чтении : 48
Способность читать области Lead-in и Lead-out : Нет
Заполнение пропущенных сэмплов тишиной : Да
Удаление блоков с тишиной в начале и конце : Нет
При вычислениях CRC использовались нулевые сэмплы : Да
Интерфейс : Встроенный Win32-интерфейс для Win NT/2000

Выходной формат : Внутренние WAV-операции
Формат сэмплов : 44.100 Гц; 16 бит; стерео

TOC извлечённого CD

Трек | Старт | Длительность | Начальный сектор | Конечный сектор
---------------------------------------------------------------------
1 | 0:00.00 | 1:01.38 | 0 | 4612
2 | 1:01.38 | 4:19.61 | 4613 | 24098
3 | 5:21.24 | 4:14.51 | 24099 | 43199
4 | 9:36.00 | 3:42.74 | 43200 | 59923
5 | 13:18.74 | 4:35.46 | 59924 | 80594
6 | 17:54.45 | 5:05.25 | 80595 | 103494
7 | 22:59.70 | 4:22.36 | 103495 | 123180
8 | 27:22.31 | 4:09.19 | 123181 | 141874
9 | 31:31.50 | 3:52.67 | 141875 | 159341

Характеристики диапазона извлечения и сообщения об ошибках

Выбранный диапазон

Имя файла D:\Lossless\Руслана\Ruslana - The Same Star (single)\Ruslana - The Same Star (single).wav

Пиковый уровень 100.0 %
Качество диапазона 99.9 %
CRC теста 00AF0F47
CRC копии 00AF0F47
Копирование... OK

Ошибок не произошло

AccurateRip: сводка

Трек 1 нет в базе данных
Трек 2 нет в базе данных
Трек 3 нет в базе данных
Трек 4 нет в базе данных
Трек 5 нет в базе данных
Трек 6 нет в базе данных
Трек 7 нет в базе данных
Трек 8 нет в базе данных
Трек 9 нет в базе данных

Ни одного трека нет в базе AccurateRip

Конец отчёта
Спектральний аналіз
2006 - Дика Енергія (Single)



    01. Дика Енергія
    02. Дика Енергія (instrumental)
    03. Дика Енергія (java remix)
    04. Дика Енергія (synthetic mix)
    05. Дика Енергія (wild mix)


Тривалість: 00:26:12
Мова: українська
Аудіо-кодек: FLAC
Бітрейт: 910-1119 кб/с
Видавець: Comp music
EAC
Exact Audio Copy V0.99 prebeta 4 from 23. January 2008

Отчёт EAC об извлечении, выполненном 23. июля 2010, 12:12

Руслана / Дика Енергія

Дисковод: Optiarc DVD RW AD-7203A Adapter: 3 ID: 0

Режим чтения : Достоверность
Использование точного потока : Да
Отключение кэша аудио : Да
Использование указателей C2 : Нет

Коррекция смещения при чтении : 48
Способность читать области Lead-in и Lead-out : Нет
Заполнение пропущенных сэмплов тишиной : Да
Удаление блоков с тишиной в начале и конце : Нет
При вычислениях CRC использовались нулевые сэмплы : Да
Интерфейс : Встроенный Win32-интерфейс для Win NT/2000

Выходной формат : Внутренние WAV-операции
Формат сэмплов : 44.100 Гц; 16 бит; стерео

TOC извлечённого CD

Трек | Старт | Длительность | Начальный сектор | Конечный сектор
---------------------------------------------------------------------
1 | 0:00.00 | 3:23.40 | 0 | 15264
2 | 3:23.40 | 3:23.40 | 15265 | 30529
3 | 6:47.05 | 4:52.01 | 30530 | 52430
4 | 11:39.06 | 7:35.14 | 52431 | 86569
5 | 19:14.20 | 6:58.17 | 86570 | 117936
6 | 28:44.37 | 49:08.12 | 129337 | 350448

Характеристики диапазона извлечения и сообщения об ошибках

Выбранный диапазон

Имя файла D:\Lossless\Руслана\Руслана - Дика Енергія (single)\Руслана - Дика Енергія (single).wav

Пиковый уровень 100.0 %
Качество диапазона 100.0 %
CRC теста 0FC3C37F
CRC копии 0FC3C37F
Копирование... OK

Ошибок не произошло

AccurateRip: сводка

Трек 1 нет в базе данных
Трек 2 нет в базе данных
Трек 3 нет в базе данных
Трек 4 нет в базе данных
Трек 5 нет в базе данных

Ни одного трека нет в базе AccurateRip

Конец отчёта
Спектральний аналіз




2008 - Wild Energy



    01. Wild Energy
    02. Moon Of Dreams feat. T-Pain
    03. New Energy Generation
    04. The Girl That Rules feat. Missy Elliott
    05. I'll Follow The Night
    06. Silent Angel
    07. Dancing In The Sky
    08. Heaven Never Makes Us Fall
    09. Cry It Out
    10. Overground
    11. Heart On Fire
    12. Energy Of Love


Тривалість: 00:43:15
Мова: англійська
Аудіо-кодек: FLAC
Бітрейт: 727-987 кб/с
Видавець: Comp music
EAC
Exact Audio Copy V0.99 prebeta 4 from 23. January 2008

Отчёт EAC об извлечении, выполненном 23. июля 2010, 15:18

Ruslana / Wild Energy

Дисковод: Optiarc DVD RW AD-7203A Adapter: 3 ID: 0

Режим чтения : Достоверность
Использование точного потока : Да
Отключение кэша аудио : Да
Использование указателей C2 : Нет

Коррекция смещения при чтении : 48
Способность читать области Lead-in и Lead-out : Нет
Заполнение пропущенных сэмплов тишиной : Да
Удаление блоков с тишиной в начале и конце : Нет
При вычислениях CRC использовались нулевые сэмплы : Да
Интерфейс : Встроенный Win32-интерфейс для Win NT/2000

Выходной формат : Внутренние WAV-операции
Формат сэмплов : 44.100 Гц; 16 бит; стерео

TOC извлечённого CD

Трек | Старт | Длительность | Начальный сектор | Конечный сектор
---------------------------------------------------------------------
1 | 0:00.00 | 4:02.05 | 0 | 18154
2 | 4:02.05 | 4:17.60 | 18155 | 37489
3 | 8:19.65 | 3:26.07 | 37490 | 52946
4 | 11:45.72 | 3:17.30 | 52947 | 67751
5 | 15:03.27 | 4:02.15 | 67752 | 85916
6 | 19:05.42 | 3:23.03 | 85917 | 101144
7 | 22:28.45 | 3:33.12 | 101145 | 117131
8 | 26:01.57 | 3:36.73 | 117132 | 133404
9 | 29:38.55 | 3:21.42 | 133405 | 148521
10 | 33:00.22 | 3:05.55 | 148522 | 162451
11 | 36:06.02 | 3:34.23 | 162452 | 178524
12 | 39:40.25 | 3:35.12 | 178525 | 194661

Характеристики диапазона извлечения и сообщения об ошибках

Выбранный диапазон

Имя файла D:\Lossless\Руслана\Ruslana - Wild Energy\Ruslana - Wild Energy.wav

Пиковый уровень 100.0 %
Качество диапазона 100.0 %
CRC теста 427144F2
CRC копии 427144F2
Копирование... OK

Ошибок не произошло

AccurateRip: сводка

Трек 1 нет в базе данных
Трек 2 нет в базе данных
Трек 3 нет в базе данных
Трек 4 нет в базе данных
Трек 5 нет в базе данных
Трек 6 нет в базе данных
Трек 7 нет в базе данных
Трек 8 нет в базе данных
Трек 9 нет в базе данных
Трек 10 нет в базе данных
Трек 11 нет в базе данных
Трек 12 нет в базе данных

Ни одного трека нет в базе AccurateRip

Конец отчёта
Спектральний аналіз











2008 - Амазонка



    01. Дика енергія
    02. Відлуння мрій
    03. Ми будемо перші
    04. Я йду за тобою
    05. Ти жива (Синтетична)
    06. Вогонь чи лід (Все не те..)
    07. Де ти, моя любов
    08. Дикий ангел
    09. Не для продажу
    10. Як змінити майбутнє


Тривалість: 00:39:58
Мова: українська
Аудіо-кодек: FLAC
Бітрейт: 842-985 кб/с
Видавець: Comp music
EAC
Exact Audio Copy V0.99 prebeta 4 from 23. January 2008

Отчёт EAC об извлечении, выполненном 23. июля 2010, 15:18

Ruslana / Wild Energy

Дисковод: Optiarc DVD RW AD-7203A Adapter: 3 ID: 0

Режим чтения : Достоверность
Использование точного потока : Да
Отключение кэша аудио : Да
Использование указателей C2 : Нет

Коррекция смещения при чтении : 48
Способность читать области Lead-in и Lead-out : Нет
Заполнение пропущенных сэмплов тишиной : Да
Удаление блоков с тишиной в начале и конце : Нет
При вычислениях CRC использовались нулевые сэмплы : Да
Интерфейс : Встроенный Win32-интерфейс для Win NT/2000

Выходной формат : Внутренние WAV-операции
Формат сэмплов : 44.100 Гц; 16 бит; стерео

TOC извлечённого CD

Трек | Старт | Длительность | Начальный сектор | Конечный сектор
---------------------------------------------------------------------
1 | 0:00.00 | 4:02.05 | 0 | 18154
2 | 4:02.05 | 4:17.60 | 18155 | 37489
3 | 8:19.65 | 3:26.07 | 37490 | 52946
4 | 11:45.72 | 3:17.30 | 52947 | 67751
5 | 15:03.27 | 4:02.15 | 67752 | 85916
6 | 19:05.42 | 3:23.03 | 85917 | 101144
7 | 22:28.45 | 3:33.12 | 101145 | 117131
8 | 26:01.57 | 3:36.73 | 117132 | 133404
9 | 29:38.55 | 3:21.42 | 133405 | 148521
10 | 33:00.22 | 3:05.55 | 148522 | 162451
11 | 36:06.02 | 3:34.23 | 162452 | 178524
12 | 39:40.25 | 3:35.12 | 178525 | 194661

Характеристики диапазона извлечения и сообщения об ошибках

Выбранный диапазон

Имя файла D:\Lossless\Руслана\Ruslana - Wild Energy\Ruslana - Wild Energy.wav

Пиковый уровень 100.0 %
Качество диапазона 100.0 %
CRC теста 427144F2
CRC копии 427144F2
Копирование... OK

Ошибок не произошло

AccurateRip: сводка

Трек 1 нет в базе данных
Трек 2 нет в базе данных
Трек 3 нет в базе данных
Трек 4 нет в базе данных
Трек 5 нет в базе данных
Трек 6 нет в базе данных
Трек 7 нет в базе данных
Трек 8 нет в базе данных
Трек 9 нет в базе данных
Трек 10 нет в базе данных
Трек 11 нет в базе данных
Трек 12 нет в базе данных

Ни одного трека нет в базе AccurateRip

Конец отчёта
Спектральний аналіз









2013 - Мій брат! (Разом!)



    01. Мій Брат!
    02. ШаЛаЛа
    03. Рахманінов
    04. Вау!
    05. Роби гучніше
    06. Я-блу4ко!
    07. Давай, Грай!
    08. Це – Ей-Форі-Я!
    bonus:
    09. Край (feat. Goran Bregovic)
    10. Dream Euphoria (DJ Small’s remix)
    11. Рахманінов (DJ Small’s remake)

Фактично, це – оновлена версія попереднього альбому Руслани "Ей-форі-Я". Окрім іншого дизайну, тут трохи змінився порядок пісень, а також додано 2 свіжих ремікси: "Dream Euphoria" та "Рахманінов".
"Це альбом ПІСЕНЬ-ЗАРЯДІВ. Це – 9 треків, у кожному з яких є свій "звук радості", "звук драйву". Альбом записувався в Україні, Швеції та США. До запису альбому долучилися Rusty Allen, Victor Little, George Benson, Brian Coller та ін. – легендарні музиканти та продюсери. Незважаючи на таку міжконтинентальність, альбом побудований на слов’янських ритмах. У давніх слов’янських хороводах, плясках, хлопушках і навіть літургіях Руслана знайшла нові для поп-музики елементи. У альбомі поєдналися знаменита "Циганочка", "Яблучко", "Сіртакі", семпли із Глінки, Чайковського, Мусоргського, Рахманінова. Зауважте: у російських класиків співачка взяла те, що вони свого часу запозичили в українській народній культурі.
Короткі кількасекундні спалахи синхронних дій – ЗАРЯДИ – головне "ноу-хау" і відмінність нового МАСОВОГО стилю і шоу Руслани, яке покликане об’єднати якомога більше людей!" (інформація з офіційного прес-релізу)

Тривалість: 00:39:17
Мова: українська
Аудіо-кодек: FLAC
Бітрейт: 960-1130 кб/с
Видавець: Comp music
Джерело: власний диск
Folder.auCDtect
-----------------------

DON'T MODIFY THIS FILE

-----------------------

PERFORMER: auCDtect Task Manager, ver. 1.6.0 RC1 build 1.6.0.1
Copyright (c) 2008-2010 y-soft. All rights reserved
http://y-soft.org

ANALYZER: auCDtect: CD records authenticity detector, version 0.8.2
Copyright (c) 2004 Oleg Berngardt. All rights reserved.
Copyright (c) 2004 Alexander Djourik. All rights reserved.

FILE: 11. Рахманінов (DJ remake).flac
Size: 25444415 Hash: 2D537C855BD80DD4B71CC91DB85CF6F6 Accuracy: -m0
Conclusion: CDDA 100%
Signature: 0034AD1AFBBC15DB23C860B62DC63337540A050B
FILE: 10. Dream Euphoria (DJ Small's remix).flac
Size: 31610992 Hash: 02D183C12D616624CA275EABF661F890 Accuracy: -m0
Conclusion: CDDA 100%
Signature: 4FF3B5CB7CE9C33EBACE24D8635F009589A08444
FILE: 09. Край.flac
Size: 34190126 Hash: 24C321CC6A05919A385ACF4DE8FD5BEF Accuracy: -m0
Conclusion: CDDA 100%
Signature: 9316D64CBE9448934E871B699DCCF455F31AF8B3
FILE: 08. Це-Ей-Форі-Я!.flac
Size: 28862153 Hash: E92E19C294E4639BB1A613DAA2BD6390 Accuracy: -m0
Conclusion: CDDA 100%
Signature: A51BCEB0B4DD9B024FC7D530EF9F9E10991996DE
FILE: 07. Давай, Грай!.flac
Size: 28965875 Hash: CAEAD394DFFA41151B6312DA1DECE9FB Accuracy: -m0
Conclusion: CDDA 100%
Signature: 29022EF8C49C6ADD6058E4BF559CA143D1788FFF
FILE: 06. Я-блу4ко!.flac
Size: 27811207 Hash: 72A2903D794A01779673671AD40380D8 Accuracy: -m0
Conclusion: CDDA 100%
Signature: 7D2C580EA4AE45D31887F0C21251BA7CE635BAD4
FILE: 05. Роби гучніше!.flac
Size: 23084746 Hash: 7B43380F2C7DCD7C4A1C89731BA071F7 Accuracy: -m0
Conclusion: CDDA 100%
Signature: 26A333CDEFEE6C59035D027F8AE83FC6A581F8A0
FILE: 04. Вау!.flac
Size: 21410256 Hash: 77B50E6FB72197BCA05A5026522F7B4F Accuracy: -m0
Conclusion: CDDA 100%
Signature: 6F79F5FF5F04E5FBE811B194EBCD7B467053F99B
FILE: 03. Рахманінов.flac
Size: 25077512 Hash: 4E2BBB47E309A1037E20812963041E7A Accuracy: -m0
Conclusion: CDDA 100%
Signature: E76F95345017AA2A3DB3597564D3D22CCAE0B257
FILE: 02. ШаЛаЛа.flac
Size: 27880855 Hash: 6858F49FEEAA18B193CDB35E3FD3F0B3 Accuracy: -m0
Conclusion: CDDA 100%
Signature: 15105B3164D0341F15543EC08D1E260EC539D241
FILE: 01. Мій брат!.flac
Size: 27419188 Hash: 22DA3983CE4F5FFC9080FEDAB8FC508C Accuracy: -m0
Conclusion: CDDA 100%
Signature: F1D3849539CF4230B9EF0AE9DDDBD0A45BAE573C
EAC
Exact Audio Copy V1.0 beta 3 from 29. August 2011

Отчёт EAC об извлечении, выполненном 19. июля 2014, 15:11

Руслана / Мій брат! (Разом!)

Дисковод: ASUS DRW-24B3ST Adapter: 0 ID: 0

Режим чтения : Достоверность
Использование точного потока : Да
Отключение кэша аудио : Да
Использование указателей C2 : Нет

Коррекция смещения при чтении : 6
Способность читать области Lead-in и Lead-out : Нет
Заполнение пропущенных сэмплов тишиной : Да
Удаление блоков с тишиной в начале и конце : Нет
При вычислениях CRC использовались нулевые сэмплы : Да
Интерфейс : Встроенный Win32-интерфейс для Win NT/2000
Обработка зазоров : Добавлено к предыдущему треку

Выходной формат : Пользовательский кодировщик
Выбранный битрейт : 896 kBit/s
Качество : Высокий
Добавление ID3-тега : Нет
Утилита сжатия : C:\Program Files (x86)\FLAC\flac.exe
Дополнительные параметры : -V -8 -T "Genre=%genre%" -T "Artist=%artist%" -T "Title=%title%" -T "Album=%albumtitle%" -T "Date=%year%" -T "Tracknumber=%tracknr%" -T "Comment=%comment%" %source%

TOC извлечённого CD

Трек | Старт | Длительность | Начальный сектор | Конечный сектор
---------------------------------------------------------------------
1 | 0:00.00 | 3:41.10 | 0 | 16584
2 | 3:41.10 | 3:17.27 | 16585 | 31386
3 | 6:58.37 | 3:24.38 | 31387 | 46724
4 | 10:23.00 | 2:56.01 | 46725 | 59925
5 | 13:19.01 | 3:05.51 | 59926 | 73851
6 | 16:24.52 | 3:32.12 | 73852 | 89763
7 | 19:56.64 | 3:37.66 | 89764 | 106104
8 | 23:34.55 | 3:54.63 | 106105 | 123717
9 | 27:29.43 | 4:22.49 | 123718 | 143416
10 | 31:52.17 | 4:23.27 | 143417 | 163168
11 | 36:15.44 | 3:21.55 | 163169 | 178298

Трек 1

Имя файла D:\Desktop\01. Мій брат!.wav

Длина предзазора 0:00:02.00

Пиковый уровень 99.9 %
Скорость извлечения 1.8 X
Качество трека 100.0 %
CRC теста 5DE2700A
CRC копии 5DE2700A
Трек не обнаружен в базе AccurateRip
Копирование... OK

Трек 2

Имя файла D:\Desktop\02. ШаЛаЛа.wav

Длина предзазора 0:00:02.00

Пиковый уровень 99.9 %
Скорость извлечения 1.9 X
Качество трека 100.0 %
CRC теста 39FAB8A1
CRC копии 39FAB8A1
Трек не обнаружен в базе AccurateRip
Копирование... OK

Трек 3

Имя файла D:\Desktop\03. Рахманінов.wav

Длина предзазора 0:00:02.00

Пиковый уровень 99.8 %
Скорость извлечения 1.5 X
Качество трека 99.9 %
CRC теста 74B1ABD4
CRC копии 74B1ABD4
Трек не обнаружен в базе AccurateRip
Копирование... OK

Трек 4

Имя файла D:\Desktop\04. Вау!.wav

Длина предзазора 0:00:02.00

Пиковый уровень 100.0 %
Скорость извлечения 2.2 X
Качество трека 100.0 %
CRC теста 0B737B59
CRC копии 0B737B59
Трек не обнаружен в базе AccurateRip
Копирование... OK

Трек 5

Имя файла D:\Desktop\05. Роби гучніше!.wav

Длина предзазора 0:00:02.00

Пиковый уровень 100.0 %
Скорость извлечения 2.3 X
Качество трека 100.0 %
CRC теста 70B4B120
CRC копии 70B4B120
Трек не обнаружен в базе AccurateRip
Копирование... OK

Трек 6

Имя файла D:\Desktop\06. Я-блу4ко!.wav

Длина предзазора 0:00:02.00

Пиковый уровень 100.0 %
Скорость извлечения 1.8 X
Качество трека 99.9 %
CRC теста F280F2F9
CRC копии F280F2F9
Трек не обнаружен в базе AccurateRip
Копирование... OK

Трек 7

Имя файла D:\Desktop\07. Давай, Грай!.wav

Длина предзазора 0:00:02.00

Пиковый уровень 100.0 %
Скорость извлечения 2.6 X
Качество трека 100.0 %
CRC теста 2D42E12A
CRC копии 2D42E12A
Трек не обнаружен в базе AccurateRip
Копирование... OK

Трек 8

Имя файла D:\Desktop\08. Це-Ей-Форі-Я!.wav

Длина предзазора 0:00:02.00

Пиковый уровень 100.0 %
Скорость извлечения 2.8 X
Качество трека 100.0 %
CRC теста 55645261
CRC копии 55645261
Трек не обнаружен в базе AccurateRip
Копирование... OK

Трек 9

Имя файла D:\Desktop\09. Край.wav

Длина предзазора 0:00:02.00

Пиковый уровень 100.0 %
Скорость извлечения 3.0 X
Качество трека 100.0 %
CRC теста D7CFAE7D
CRC копии D7CFAE7D
Трек не обнаружен в базе AccurateRip
Копирование... OK

Трек 10

Имя файла D:\Desktop\10. Dream Euphoria (DJ Small's remix).wav

Длина предзазора 0:00:02.00

Пиковый уровень 100.0 %
Скорость извлечения 3.1 X
Качество трека 100.0 %
CRC теста FC42B920
CRC копии FC42B920
Трек не обнаружен в базе AccurateRip
Копирование... OK

Трек 11

Имя файла D:\Desktop\11. Рахманінов (DJ Small's remake).wav

Длина предзазора 0:00:02.00

Пиковый уровень 98.8 %
Скорость извлечения 3.1 X
Качество трека 100.0 %
CRC теста 9376C6BD
CRC копии 9376C6BD
Трек не обнаружен в базе AccurateRip
Копирование... OK

Ни одного трека нет в базе AccurateRip

Ошибок не произошло

Конец отчёта

---- CUETools DB Plugin V2.1.3

[CTDB TOCID: YvVSOQE6OslX4evSxTePeqmt0Os-] found, Submit result: already submitted
[34e2c4e1] (1/1) Accurately ripped

==== Контрольная сумма отчёта C1A28329139D89D0947B2D58A64D3A9B8D84668CEF3429A4ED0AE68ACD39B465 ====
Спектральний аналіз










Тривалість: 09:01:56
Мова: українська, англійська
Аудіо-кодек: FLAC
Бітрейт: 608-1130 кб/с
Джерело: ріп willrain, Інтернет та власний ріп
Додаткова інформація

У травні 2004 року українська співачка Руслана перемагає на популярному міжнародному пісенному конкурсі "Євробачення" в Стамбулі. Яскрава перемога приносить їй надзвичайний успіх в Європі.
Протягом 97 тижнів переможний сингл Руслани "Wild dances" очолює 14 європейських чартів. Її однойменний альбом видається в 25 країнах. В Лас-Вегасі Руслана отримує престижну музичну премію World Music Awards, як український артист, що продав найбільшу кількість альбомів у світі.
Руслана входить в трійку найпопулярніших людей в Бельгії. Греки визнають її найсексуальнішою дівчиною року. В Україні Руслана входить до числа найвпливовіших людей.
У 2003 році виходить альбом "Дикі танці", створений на основі етнічних матеріалів та численних експедицій в Карпатські гори. Давня містична культура разом з музикою і танцями українських горян, секрети мольфарів, українські традиції та обряди – все це є складовими альбому.
Українська Амазонка, лідер у багатьох музичних тенденціях Європи, відкриває світу нове, маловідоме світові автентичне звучання.
Руслана використовує вокальну манеру "кугикання" – давню перекличку карпатських горян. Працюючи з командою музикантів та DJ-їв, Руслана створює свій власний, унікальний стиль в музиці, оснований на використанні нових ритмів.
Натхнення для своїх музичних пошуків співачка зустрічає на вершинах Карпат, добре знайомих їй з дитинства.
Руслана народилася у Львові, старовинному та легендарному місті Західної України. В 4 роки вона стає ученицею експериментального набору до музичної школи, а вже в 7 успішно виступає та гастролює з дитячим ансамблем.
По закінченню п'яти курсів Львівської консерваторії Руслана відмовляється від кар'єри диригента в аспірантурі і обирає сцену.
Перший успіх приходить до Руслани у 1996 році. Отримавши Гран-при на фестивалі "Слов'янський базар" у Вітебську, вона вже тоді розуміє, що ця перемога – всього лише старт. З того моменту Руслана багато експериментує і знаходиться в пошуках свого власного стилю. Співачка проводить концертні акції у старовинних замках, організовує масштабні зйомки музичних фільмів та кліпів, відроджує традиції своєї Батьківщини.
Наступною великою перемогою стає "Євробачення". Після такої гучної не тільки для Руслани, але і для України події, співачка вирушає у довготривалий тур Європою і отримує абсолютно заслужену та виправдану популярність.
Восени 2004 року в Україні спалахує Помаранчева революція. Руслана знімає кліп на пісню "Dance with the wolves", під час зйомок якого входить до клітки зі справжніми вовками. Співачка монтує нову версію кліпу, використовуючи кадри зі зйомок революційних подій.
Руслана продовжує концертну діяльність і дає велику кількість концертів від Сибіру до Канади, від Ісландії до Ізраїлю. Виступає в Оксфорді, на ВВС, дає численні шоу в Німеччині та Туреччині, стосунки з якою стали настілки дружніми, що турки навіть запропонували Руслані своє громадянство. В Греції під час Олімпіади одного разу замість гімну України були виконані "Wild dances".
У 2006 році Руслана розпочинає співпрацю з ОБСЄ по проблемі боротьби з торгівлею людьми. Вона екранізує ряд соціальних роликів і спільно з міжнародними організаціями здійснює телевізійну інформаційну кампанію на цю тему в Україні.
Протягом 2007-2008 років триває робота над новим альбомом та шоу.Після тривалих місяців творчого процесу та пошуків Руслана виходить на сцену у новому іміджі.
Величезна подяка пану willrain за конвертування у FLAC та нові альбоми і треки!

Якщо Ви справді бажаєте підтримати українське - після прослуховування, якщо музика вам сподобалась, придбайте ліцензійний диск. Підтримаймо вітчизняних виконавців!


Торрент оновлено 19.07.2014! Додано альбом "Мій брат! (Разом!)". Прохання перекачати торрент!


Золотий реліз (завантажене не впливає на рейтинг)
 Трекер:    Зареєстрований   

Завантажити / скачати українську музику



відео для новачків



 Зареєстрований:   2014-07-19 21:13
 Розмір:   3.92 GB 
 Оцінка музики:   10/10 (Голосів: 16)
   
Vladdrako17 
Свій


З нами з: 25.08.11
Востаннє: 25.09.16
Повідомлень: 129

2014-06-24 19:40  
В кого є ще альбоми в lossless, кидайте, додам, як не шкода Wide grin
bohun 
VIP


З нами з: 21.03.09
Востаннє: 07.12.16
Повідомлень: 271

2014-06-25 10:13  
Цитата:
13. Таврийские игры
14. Партия Регионального Возрождения
15. НДП (друзья)
16. НДП (любимый человек)
17. НДП (cемья)
18. Мелорама
19. Коломбо
20. Полтергейст
21. Уикенд
22. Подробности
23. Интерспорт
24. Следствие


А що це за рекламні анонси в альбомі 1998 - Мить весни (Promo `98) ? Просто цікаво.
PS. Партия Регионального Возрождения - часом не попередниця партії регіонів? Happy

Vladdrako17 
Свій


З нами з: 25.08.11
Востаннє: 25.09.16
Повідомлень: 129

2014-06-25 10:19  
Цитата:
А що це за рекламні анонси в альбомі 1998 - Мить весни (Promo `98) ? Просто цікаво.
PS. Партия Регионального Возрождения - часом не попередниця партії регіонів? 

Бог його зна, дядько, в якого диск, скани не зробив, і інфи не достукаєшся в нього, по ходу Руслана руку до цього всього доклала, Таврійські ігри знаю, точно вона записала і все Sad (1)
Щодо партії не знаю, я тоді ще до дит. садка ходив Wide grin Думаю ґуґл про це більше знає)

civ 
VIP


З нами з: 16.02.11
Востаннє: 07.12.16
Повідомлень: 429

2014-06-25 19:19  
У мене десь є студійний диск "Мить весни". Ріпнути можу, але сканера не маю.
Vladdrako17 
Свій


З нами з: 25.08.11
Востаннє: 25.09.16
Повідомлень: 129

2014-06-25 19:26  
Цитата:
У мене десь є студійний диск "Мить весни". Ріпнути можу, але сканера не маю.

А що, давайте Happy А сфоткати ніяк?

Додано через 1 хвилину 41 секунду:

Цитата:
У меня лежит сдвоенный вариант "Мить весни. Дзвiнкий вiтер (live)"

Теж давайте, подивлюсь, де мо краща якість і мо чого не вистачає)

civ 
VIP


З нами з: 16.02.11
Востаннє: 07.12.16
Повідомлень: 429

2014-06-25 19:56  
У мене той самий диск, що і у willrain. Тож, питання відпало.
Vladdrako17 
Свій


З нами з: 25.08.11
Востаннє: 25.09.16
Повідомлень: 129

2014-06-25 21:16  
willrain написано:
Хорошо. Я тогда пока с файлоархива тот альбом уберу, чтобы в бэкапы не падал, а потом уже все вместе и выложу

Ок, ще раз дякую)

Додано через 4 хвилини 2 секунди:

Торрент оновлено!

ssTAss 
Модератор музики


З нами з: 05.07.08
Востаннє: 08.12.16
Повідомлень: 10947

2014-06-25 22:59  
willrain
в нас спілкуються українською
щоб не видавати картку на перший раз просто почищу тему від повідомлень

Vladdrako17 
Свій


З нами з: 25.08.11
Востаннє: 25.09.16
Повідомлень: 129

2014-06-26 22:05  
Не можу відредагувати 1 пост, хоч ти лусни... завтра спробую, але сам торрент файл оновився...
Замінив альбом 2003 - Дикі Танці на версію з Євробонусом

ssTAss 
Модератор музики


З нами з: 05.07.08
Востаннє: 08.12.16
Повідомлень: 10947

2014-06-27 01:03  
Vladdrako17
у Вас маса помилок в оформленні
може глянете на правила?
http://toloka.to/t223
або на подібну дискографію
http://toloka.to/t3064

Vladdrako17 
Свій


З нами з: 25.08.11
Востаннє: 25.09.16
Повідомлень: 129

2014-06-27 07:43  
ssTAss, ану перевіряйте, чого там ще не вистачає)
ssTAss 
Модератор музики


З нами з: 05.07.08
Востаннє: 08.12.16
Повідомлень: 10947

2014-06-28 17:48  
Vladdrako17 написано:
ану перевіряйте, чого там ще не вистачає)

вже набагато краще, але... )))
отже, почнемо
1 - назва релізу (в двох місцях редагується і має бути однаковою) має бути така
Руслана | Дискографія (10 альбомів) (1998-2008) [FLAC] | Pop
2 - обкладинка має бути до 600х600 (заливаєте на http://img.hurtom.com/ і сюди копіюєте посилання)
... бажано і обкладинки до альбомів туди ж заливати, а не кацапський фастпік
3 - в альбомах, де не одна мова виконання треба вказувати потреково
приклад:
українська (1-9,12), англійська (10,11), відсутня (13)
4 - в альбомі "Амазонка" приберіть виконавця в кожному треці (якщо один, то не вказуємо потреково)
5 - "Інші треки" (якщо вони не входили в жоден з альбомів) приберіть звідси, створіть окремий реліз, а тут залишіть посилання на нього
ніби все.. але
дискографії в луслесі краще робити правильні (точний ріп ЕАС-ом, з куе і логом), бо якщо хтось створить нормальну роздачу, то Ваша піде в архів...

Vladdrako17 
Свій


З нами з: 25.08.11
Востаннє: 25.09.16
Повідомлень: 129

2014-06-28 20:54  
ssTAss, ну ніби все) До перших двох альбомів логів немає, під лінуксом ріпувалися)
ssTAss 
Модератор музики


З нами з: 05.07.08
Востаннє: 08.12.16
Повідомлень: 10947

2014-06-28 21:44  
не все
Vladdrako17 написано:
Bonus (Promo '98)

оце прибрати
альбом не містив такого бонусу
у Вас перед тим був диск "Промо" (якщо бажаєте, то можу Вам кинути нормальний ріп) - це звідти
подивився у себе на компі - є майже всі альбоми з логами і відео-бонусами, крім
1999 Останнє Рiздво 90-х
2003 Добрий вечір тобі
2004 Dance With The Wolves (single)
2012 ЕЙ-форі-Я чи 2012 Мій Брат!(Разом!)
не дивився в неті, може вже щось і з'явилося

Vladdrako17 
Свій


З нами з: 25.08.11
Востаннє: 25.09.16
Повідомлень: 129

2014-06-28 21:51  
ssTAss, та мабуть Бог із ним, тим промо) То чого ж Ви мовчите, що ріпи маєте, давайте, заміню)
Vladdrako17 
Свій


З нами з: 25.08.11
Востаннє: 25.09.16
Повідомлень: 129

2014-06-29 08:17  
І до речі, на офіційному сайті Руслани в дискографії теж є "Інші пісні", так що подібне має право на існування Wide grin
Бандуррра 
Частий відвідувач


З нами з: 07.01.14
Востаннє: 27.10.14
Повідомлень: 39

2014-10-02 22:07  
Хто би що не говорив - Руслана - це взірець ЩИРОГО патріотизму для усіх "зірок" світу. Вона завжди свої гроші витрачала на благо України, ЗАВЖДИ. І тому Бог віддячив Руслані - всенародна любов, перемога на "Євробаченні", участь у престижних національних проектах. Руслано, всього Вам найкращого за невпинну безперервну волонтерську боротьбу за Україну, здоров'я, особистого щастя і нових Вам хітів таких як "Світанок", "Балада про принцеу", "Втрачений рай", "Мить весни", "Ейфорія", "Дика енерґія", "Дикі танці", "Танці з вовками". Слухаючи пісні Руслани - попадаєш у її Своєрідний казковий магнетичний світ де поєднується вода і полум'я, тиша і буревій, спокій і бурхливий потік, світ ранкової роси після густої літньої мряки у красивому лісі, світ нестримної енерґії диких коней, світ волі та поваги до релігії, світ Різдвяної містерії.... Як же я люблю творчість Руслани!
kryzhanyy 
Новенький


З нами з: 26.10.14
Востаннє: 26.11.14
Повідомлень: 2

2014-10-26 08:09  
У кого-небудь є в lossless англійська версія Ей-Форі-Ї (My Boo! [Together!])?
kryzhanyy 
Новенький


З нами з: 26.10.14
Востаннє: 26.11.14
Повідомлень: 2

2014-11-26 09:42  
На альбомі “Дикі танці (Євробонус)” немає “Гуцулки”. Sad (1)
7. Північна
8. Це – любов
9. Я тебе люблю
10. Знаю я (Remix CJ Nekrasov)

http://s101.fotosklad.org.ua/20141126/f/357f373c4d4decf17bc21716811b1dee.jpg

Ваш часовий пояс: GMT + 2 Години

Нова тема   Відповісти