Завантажити та скачати торренти українською


Залицяльник / Le soupirant (1962) 720p Ukr/Fre | Sub Ukr

Нові коментарі

Нова тема   Відповісти
Автор Повідомлення
SATKUR 
Частий відвідувач


З нами з: 25.05.14
Востаннє: 03.12.16
Повідомлень: 38

2014-06-21 23:58  
Залицяльник / Le soupirant (1962) 720p Ukr/Fre | Sub Ukr

Залицяльник / Le soupirant (1962) 720p Ukr/Fre | Sub Ukr


Жанр: комедія
Країна: Франція



Кінокомпанія: C.A.P.A.C., Cocinor, Copra Films
Режисер: П'єр Етекс (Pierre Étaix)
Актори: Франс Арнель (France Arnel), П'єр Етекс (Pierre Étaix), Лоранс Лінєр (Laurence Lignères), Клод Массо (Claude Massot), Деніз Перонн (Denise Péronne), Карін Веселі (Karin Vesely) та ін.

Сюжет:
П'єр - сором'язливий молодий чоловік, що досі живе із батьками, цілковито занурений у науку. Батьки вимагають, щоб він одружився, а П'єр зовсім не вміє поводитися з жінками. Наслідуючи інших чоловіків, він отримує зовсім не те, що хоче...


Тривалість: 01:24:40
Якість:
Відео:
кодек:
розмір кадру: 1200 х 720
бітрейт: 6000 кб/с

Аудіо # 1:
мова: українська
переклад: одноголосий закадровий
кодек: 2.0
бітрейт: 192 кб/с

Аудіо # 2:
мова: французька
переклад: оригінал
кодек: 1.0
бітрейт: 192 кб/с

Субтитри:
мова: українська
тип: програмні (м'які)
формат: *.srt

Озвучення зроблено SATKUR за допомогою субтитрів antusyrzhuk
Семпл: http://multi-up.com/981776
MediaInfo

Уникальный идентификатор : 192598374418661114958318139975994187936 (0x90E518FFCED979FAA1C367A1F27420A0)
Полное имя : D:\FILM\F-2014\Disk-52\Le.soupirant.1962.[vo.satkur+fr]...720p.UA\Le.soupirant.1962.[vo.satkur+fr]...720p.UA.mkv
Формат : Matroska
Версия формата : Version 2
Размер файла : 3,76 Гбайт
Продолжительность : 1 ч. 24 м.
Общий поток : 6360 Кбит/сек
Название фильма : Le soupirant*1962 /antusyrzhuk
Дата кодирования : UTC 2014-06-21 19:39:56
Программа кодирования : mkvmerge v5.7.0 ('The Whirlwind') built on Jul 29 2012 15:12:35
Библиотека кодирования : libebml v1.2.3 + libmatroska v1.3.0

Видео
Идентификатор : 1
Формат : AVC
Формат/Информация : Advanced Video Codec
Профиль формата : [email protected]
Параметр CABAC формата : Да
Параметр ReFrames формата : 9 кадров
Режим смешивания : Header stripping
Идентификатор кодека : V_MPEG4/ISO/AVC
Продолжительность : 1 ч. 24 м.
Битрейт : 6000 Кбит/сек
Ширина : 1200 пикселей
Высота : 720 пикселей
Соотношение сторон : 1,667
Режим частоты кадров : Постоянный
Частота кадров : 23,976 кадра/сек
Цветовое пространство : YUV
Субдискретизация насыщенности : 4:2:0
Битовая глубина : 8 бит
Тип развёртки : Прогрессивная
Бит/(Пиксели*Кадры) : 0.290
Размер потока : 3,46 Гбайт (92%)
Заголовок : Le.Soupirant.aka.The.Suitor.1962.720p.BluRay..-KESH
Библиотека кодирования : core 130 r2273 b3065e6
Настройки программы : cabac=1 / ref=9 / deblock=1:0:0 / analyse=0x3:0x133 / me=umh / subme=10 / psy=1 / psy_rd=1.00:0.00 / mixed_ref=1 / me_range=24 / chroma_me=1 / trellis=2 / 8x8dct=1 / cqm=0 / deadzone=21,11 / fast_pskip=1 / chroma_qp_offset=-2 / threads=6 / lookahead_threads=1 / sliced_threads=0 / nr=0 / decimate=1 / interlaced=0 / bluray_compat=0 / constrained_intra=0 / bframes=8 / b_pyramid=2 / b_adapt=2 / b_bias=0 / direct=3 / weightb=1 / open_gop=0 / weightp=2 / keyint=240 / keyint_min=24 / scenecut=40 / intra_refresh=0 / rc_lookahead=60 / rc=abr / mbtree=1 / bitrate=6000 / ratetol=1.0 / qcomp=0.60 / qpmin=0 / qpmax=69 / qpstep=4 / vbv_maxrate=62500 / vbv_bufsize=78125 / nal_hrd=none / ip_ratio=1.40 / aq=1:1.00
Язык : French
Default : Да
Forced : Нет
Основные цвета : BT.709
Характеристики трансфера : BT.709
Коэффициенты матрицы : BT.709

Аудио #1
Идентификатор : 2
Формат : AC-3
Формат/Информация : Audio Coding 3
Расширение режима : CM (complete main)
Параметр Endianness формата : Big
Режим смешивания : Header stripping
Идентификатор кодека : A_AC3
Продолжительность : 1 ч. 24 м.
Вид битрейта : Постоянный
Битрейт : 192 Кбит/сек
Каналы : 2 канала
Расположение каналов : Front: L R
Частота : 48,0 КГц
Битовая глубина : 16 бит
Метод сжатия : С потерями
Размер потока : 116 Мбайт (3%)
Заголовок : VO SATKUR
Язык : Ukrainian
Default : Да
Forced : Да

Аудио #2
Идентификатор : 3
Формат : AC-3
Формат/Информация : Audio Coding 3
Расширение режима : CM (complete main)
Параметр Endianness формата : Big
Режим смешивания : Header stripping
Идентификатор кодека : A_AC3
Продолжительность : 1 ч. 24 м.
Вид битрейта : Постоянный
Битрейт : 192 Кбит/сек
Каналы : 1 канал
Расположение каналов : Front: C
Частота : 48,0 КГц
Битовая глубина : 16 бит
Метод сжатия : С потерями
Размер потока : 116 Мбайт (3%)
Язык : French
Default : Нет
Forced : Нет

Текст
Идентификатор : 4
Формат : UTF-8
Идентификатор кодека : S_TEXT/UTF8
Идентификатор кодека/Информация : UTF-8 Plain Text
Язык : Ukrainian
Default : Нет
Forced : Нет

Меню
00:00:00.000 : en:Chapter 1
00:11:41.283 : en:Chapter 2
00:18:13.342 : en:Chapter 3
00:23:51.847 : en:Chapter 4
00:42:16.075 : en:Chapter 5
00:48:22.107 : en:Chapter 6
00:55:57.354 : en:Chapter 7
01:08:35.111 : en:Chapter 8
01:18:23.740 : en:Chapter 9
Скріншоти
Джерело:
Особиста оцінка: 8 - мені сподобалося


Авторський реліз (завантажувати можна без реєстрації)
 Трекер:    Зареєстрований   

Завантажити / скачати фільм українською



відео для новачків



 Зареєстрований:   2014-06-21 23:58
 Розмір:   3.76 GB 
 Оцінка фільму:   8.1/10 (Голосів: 7)
   
perepadia 
Поважний учасник


З нами з: 27.10.08
Востаннє: 04.12.16
Повідомлень: 235

2014-06-22 00:04  
П'єр Етекс - див. транскрипцію http://en.wikipedia.org/wiki/Pierre_%C3%89taix
zaika 
VIP


З нами з: 01.07.12
Востаннє: 04.12.16
Повідомлень: 947

2014-06-27 06:41  
В описі сюжету написано, що П'єр - сором'язливий молодий чоловік,. По його виду не скажеш що він молодий, а враховуючи на які авантюри він іде щоб зустрітись з предметом свого захоплення - що він сором'язливий. А ось те що його мати домашній тиран - очевидно. Це вона зробила його таким непристосованим до життя. Як на мене - це дуже сумна історія. Історія про людину, яка зважилась вирватись з-під гніту домашнього рабства. Невже в 1962 році це було предметом для сміху? 6/10.
-VJ- 
VIP


З нами з: 01.11.09
Востаннє: 03.12.16
Повідомлень: 576

2014-09-11 15:26  
zaika написано:
Невже в 1962 році це було предметом для сміху?


"Залицяльник" - перша картина Етекса, для проби він "позичив" сюжети у Бастера Кітона ("Сьомий шанс", "П'яний шлюб" та кілька інших). Тому гумор картини родом не з 1962 року, а з 1925-го.
Ну і до того ж у великого Бастера гумор завжди був специфічний.

Ваш часовий пояс: GMT + 2 Години

Нова тема   Відповісти