Завантажити та скачати торренти українською


Найпрудкіший Індіан / The World's Fastest Indian (2005) 720p Ukr/Eng

Нові коментарі

Нова тема   Відповісти
Останній раз роздавалося mrpuma (2016-12-05)
Автор Повідомлення
Гірський Кришталь 
Свій


З нами з: 07.01.09
Востаннє: 06.10.16
Повідомлень: 128

2014-06-19 18:50  
Найпрудкіший Індіан / The World's Fastest Indian (2005) 720p Ukr/Eng

Найпрудкіший Індіан / The World's Fastest Indian (2005) 720p Ukr/Eng


Жанр: драма, біографія, спорт, пригодницький
Країна: США, Японія, Швейцарія, Нова Зеландія



Кінокомпанія: 3 Dogs and a Pony | New Zealand Film Commission | New Zealand Film Production Fund | OLC/Rights Entertainment (Japan) Inc. | WFI Productions Ltd.
Режисер: Роджер Дональдсон
Актори: Ентоні Хопкінс, Айєйн Рі, Тесса Мітчел, Аарон Мерфі, Тім Шедболт, Енні Уіттл, Грег Джонсон, Ентоні Старр, Кейт Салліван, Крейг Холл

Сюжет:
Фільм розповідає про історію життя знаменитого новозеландця Берта Монро, який витратив десятиліття життя на переоснащення свого улюбленого мотоцикла марки «Індіан» 1920 випуску з максимальною швидкістю в 58 миль / год в гоночний болід для встановлення рекорду швидкості. І офіційний рекорд (200 миль / годину) зрештою був встановлений! Це сталося в 1967 році ...


Тривалість: 02:07:01
Якість:
Відео:
кодек:
розмір кадру: 1280 x 720
бітрейт: 4 155 кб/с

Аудіо # 1:
мова: українська
переклад: багатоголосий закадровий
кодек: 5.1
бітрейт: 384 кб/с

Аудіо # 2:
мова: англійська
переклад: оригінал
кодек: 5.1
бітрейт: 384 кб/с

Переклад виконано і озвучено:
MediaInfo
General
Unique ID : 231567345310307832582620473947975950058 (0xAE363F9A4202E9D5B57D534605D59EEA)
Complete name : D:\Video\The_World's_Fastest_Indian_HDCLUB\BDMV\STREAM\00000 (1).mkv
Format : Matroska
Format version : Version 2
File size : 4.37 GiB
Duration : 2h 7mn
Overall bit rate : 4 923 Kbps
Encoded date : UTC 2014-06-19 16:25:39
Writing application : mkvmerge v4.6.0 ('Still Crazy After All These Years') зібрано Mar 10 2011 02:50:32
Writing library : libebml v1.2.0 + libmatroska v1.1.0

Video
ID : 1
Format : AVC
Format/Info : Advanced Video Codec
Format profile : [email protected]
Format settings, CABAC : Yes
Format settings, ReFrames : 4 frames
Codec ID : V_MPEG4/ISO/AVC
Duration : 2h 7mn
Bit rate : 4 155 Kbps
Width : 1 280 pixels
Height : 720 pixels
Display aspect ratio : 16:9
Frame rate mode : Constant
Frame rate : 23.976 fps
Color space : YUV
Chroma subsampling : 4:2:0
Bit depth : 8 bits
Scan type : Progressive
Bits/(Pixel*Frame) : 0.188
Stream size : 3.60 GiB (82%)
Title : Найпрудкіший Індіан / The World's Fastest Indian (2005) 720
Writing library : core 138 r2358 9e941d1
Encoding settings : cabac=1 / ref=3 / deblock=1:-3:-3 / analyse=0x3:0x113 / me=umh / subme=10 / psy=1 / psy_rd=1.00:0.00 / mixed_ref=1 / me_range=64 / chroma_me=1 / trellis=2 / 8x8dct=1 / cqm=0 / deadzone=21,11 / fast_pskip=0 / chroma_qp_offset=-2 / threads=3 / lookahead_threads=1 / sliced_threads=0 / nr=0 / decimate=1 / interlaced=0 / bluray_compat=0 / constrained_intra=0 / bframes=3 / b_pyramid=2 / b_adapt=1 / b_bias=0 / direct=1 / weightb=1 / open_gop=0 / weightp=2 / keyint=240 / keyint_min=23 / scenecut=40 / intra_refresh=0 / rc_lookahead=40 / rc=2pass / mbtree=1 / bitrate=4155 / ratetol=1.0 / qcomp=0.60 / qpmin=10 / qpmax=51 / qpstep=4 / cplxblur=20.0 / qblur=0.5 / vbv_maxrate=62500 / vbv_bufsize=78125 / nal_hrd=none / ip_ratio=1.40 / aq=1:1.00
Default : Yes
Forced : No

Audio #1
ID : 2
Format : AC-3
Format/Info : Audio Coding 3
Mode extension : CM (complete main)
Format settings, Endianness : Big
Codec ID : A_AC3
Duration : 2h 7mn
Bit rate mode : Constant
Bit rate : 384 Kbps
Channel count : 6 channels
Channel positions : Front: L C R, Side: L R, LFE
Sampling rate : 48.0 KHz
Bit depth : 16 bits
Compression mode : Lossy
Stream size : 349 MiB (8%)
Title : 5.1 @ 384 kbps
Language : Ukrainian
Default : Yes
Forced : No

Audio #2
ID : 3
Format : AC-3
Format/Info : Audio Coding 3
Mode extension : CM (complete main)
Format settings, Endianness : Big
Codec ID : A_AC3
Duration : 2h 7mn
Bit rate mode : Constant
Bit rate : 384 Kbps
Channel count : 6 channels
Channel positions : Front: L C R, Side: L R, LFE
Sampling rate : 48.0 KHz
Bit depth : 16 bits
Compression mode : Lossy
Stream size : 349 MiB (8%)
Title : 5.1 @ 384 kbps
Language : English
Default : No
Forced : No
Скріншоти




Подяки за:
запис доріжки: Romario_O
підготовлений постер hellforces'у


Джерело:
Особиста оцінка: 10 - без зайвих вагань рекомендую всім!


 Трекер:    Зареєстрований   

Завантажити / скачати фільм українською



відео для новачків



 Зареєстрований:   2014-06-19 18:50
 Розмір:   4.37 GB 
 Оцінка фільму:   9.8/10 (Голосів: 14)
   
igor911 
Відео Гуртом
Відео Гуртом


З нами з: 18.01.08
Востаннє: 06.12.16
Повідомлень: 5144

2014-06-19 20:48  
Додай будь ласка оригінальні субтитри в контейнер (лінк є тут http://toloka.to/t46216)
Чому не брав новішу доріжку від DеLight"а? Напевно в ній краща якість + нема дутого псевдо-5.1 Я б додав би її.
Скріни треба в png і правильного розміру.
UPD. Вкажи джерела доріжок (запис + зведення)

Oleksa9 
Поважний учасник


З нами з: 17.05.12
Востаннє: 05.12.16
Повідомлень: 225

2014-06-19 20:50  
Тут переклад назви порадував Happy
Але в описі треба виправити "в кінці кінців" на зрештою. Wink (2)

Гірський Кришталь 
Свій


З нами з: 07.01.09
Востаннє: 06.10.16
Повідомлень: 128

2014-06-19 23:57  
Скріншоти поміняв.
"в кінці кінців" замінив на зрештою.
Вказав джерело укр. доріжки (запис + зведення) в подяці.
Доріжка від Romario_O не погана і має ліпший бітрейт ніж у DеLight.
Англійські субтитри не додам, бо не хочу пересоздавати ріп і англійські не важливі (укр нема).

yuretsua 
Частий відвідувач


З нами з: 05.09.11
Востаннє: 06.12.16
Повідомлень: 34

2015-11-25 01:31  
Додайте, будь ласка, швидкості! Не можу скачати
usibat2015 
Свій


З нами з: 20.10.15
Востаннє: 04.12.16
Повідомлень: 53

2015-11-25 18:02  
5+ за те що на двд влізе Rolleyes (3)
yuretsua 
Частий відвідувач


З нами з: 05.09.11
Востаннє: 06.12.16
Повідомлень: 34

2015-11-28 03:18  
Дякую!
Ваш часовий пояс: GMT + 2 Години

Нова тема   Відповісти