Завантажити та скачати торренти українською


Скубі-Ду 2: Монстри на волі / Scooby-Doo 2: Monsters Unleashed (2004) 720p Ukr/Eng | Sub Eng

Нові коментарі

Нова тема   Відповісти
Автор Повідомлення
Anonymous 







2014-06-18 17:39  
Скубі-Ду 2: Монстри на волі / Scooby-Doo 2: Monsters Unleashed (2004) 720p Ukr/Eng | Sub Eng



Жанр: фентезі, бойовик, комедія, детектив, пригодницький, сімейний
Країна: США, Канада



Кінокомпанія: Warner Bros., Mosaic Media Group
Режисер: Радж Ґоснелл / Raja Gosnell
Актори: Фредді Принц мол. / Freddie Prinze Jr., Сара Мішель Ґелар / Sarah Michelle Gellar, Метью Лілард / Matthew Lillard, Лінда Карделіні / Linda Cardellini, Сет Ґрін / Seth Green, Пітер Бойл / Peter Boyle та інші

Сюжет:
Цього разу Скубі-Ду і його приятелям належить боротись із замаскованим лиходієм, який замислює захопити місто Кулсвіль, наповнивши його привидами. Ці істоти, що з'являються на світ завдяки спеціальній машині по генерації монстрів, повинні влаштувати в містечку справжній хаос. Але завдяки зусиллям корпорації "Таємниця" Кулсвіль буде неодмінно врятований!


Рейтинг MPAA: PG - рекомендується присутність батьків
Вікова категорія: 6+

Тривалість: 01:32:49
Якість: 720p
Відео:
кодек:
розмір кадру: 1280 х 720
бітрейт: 5012 кбіт/с

Аудіо # 1:
мова: українська
переклад: двоголосий закадровий
кодек: 2.0
бітрейт: 192 кб/с

Аудіо # 2:
мова: англійська
переклад: оригінал
кодек: 5.1
бітрейт: 1536 кб/с

Субтитри:
мова: англійська
тип: програмні (м'які)
формат: *.srt

Збережено оригінальні розділи, як на Blu-ray.
MediaInfo
Код:
General
Unique ID                                : 212326369560435896574936343699817454209 (0x9FBC92417FF1E4F6949BBEA524835A81)
Complete name                            : Scooby-Doo 2. Monsters Unleashed (2004) [Ukr,Eng sub.Eng] 720p [Hurtom & HDClub].mkv
Format                                   : Matroska
Format version                           : Version 4 / Version 2
File size                                : 4.44 GiB
Duration                                 : 1h 32mn
Overall bit rate                         : 6 850 Kbps
Movie name                               : Скубі-Ду 2: Монстри на волі / Scooby-Doo 2: Monsters Unleashed (2004) 720p [Hurtom & HDClub]
Encoded date                             : UTC 2014-06-18 14:17:55
Writing application                      : mkvmerge v7.0.0 ('Where We Going') 64bit built on Jun  9 2014 15:16:27
Writing library                          : libebml v1.3.0 + libmatroska v1.4.1
DURATION                                 : 01:32:49.184000000
NUMBER_OF_FRAMES                         : 174037
NUMBER_OF_BYTES                          : 133660416
_STATISTICS_WRITING_APP                  : mkvmerge v7.0.0 ('Where We Going') 64bit built on Jun  9 2014 15:16:27
_STATISTICS_WRITING_DATE_UTC             : 2014-06-18 14:17:55
_STATISTICS_TAGS                         : BPS DURATION NUMBER_OF_FRAMES NUMBER_OF_BYTES

Video
ID                                       : 1
Format                                   : AVC
Format/Info                              : Advanced Video Codec
Format profile                           : [email protected]
Format settings, CABAC                   : Yes
Format settings, ReFrames                : 9 frames
Codec ID                                 : V_MPEG4/ISO/AVC
Duration                                 : 1h 32mn
Bit rate                                 : 5 012 Kbps
Width                                    : 1 280 pixels
Height                                   : 720 pixels
Display aspect ratio                     : 16:9
Frame rate mode                          : Constant
Frame rate                               : 23.976 fps
Color space                              : YUV
Chroma subsampling                       : 4:2:0
Bit depth                                : 8 bits
Scan type                                : Progressive
Bits/(Pixel*Frame)                       : 0.227
Stream size                              : 3.25 GiB (73%)
Title                                    : Скубі-Ду 2: Монстри на волі / Scooby-Doo 2: Monsters Unleashed / Скуби-Ду 2: Монстры на свободе (2004) 720p [HDCLUB-madoff]
Writing library                          : core 125 r2200 999b753
Encoding settings                        : cabac=1 / ref=9 / deblock=1:-3:-3 / analyse=0x3:0x113 / me=umh / subme=10 / psy=1 / psy_rd=1.20:0.00 / mixed_ref=1 / me_range=32 / chroma_me=1 / trellis=2 / 8x8dct=1 / cqm=0 / deadzone=21,11 / fast_pskip=0 / chroma_qp_offset=-2 / threads=12 / lookahead_threads=2 / sliced_threads=0 / nr=0 / decimate=1 / interlaced=0 / bluray_compat=0 / constrained_intra=0 / bframes=11 / b_pyramid=2 / b_adapt=2 / b_bias=0 / direct=1 / weightb=1 / open_gop=0 / weightp=2 / keyint=240 / keyint_min=22 / scenecut=40 / intra_refresh=0 / rc_lookahead=40 / rc=crf / mbtree=0 / crf=17.0 / qcomp=0.60 / qpmin=10 / qpmax=69 / qpstep=4 / vbv_maxrate=50000 / vbv_bufsize=62500 / crf_max=0.0 / nal_hrd=none / ip_ratio=1.40 / pb_ratio=1.30 / aq=1:1.00
Language                                 : English
Default                                  : Yes
Forced                                   : No
DURATION                                 : 01:32:49.231000000
NUMBER_OF_FRAMES                         : 133528
NUMBER_OF_BYTES                          : 3582943304
_STATISTICS_WRITING_APP                  : mkvmerge v7.0.0 ('Where We Going') 64bit built on Jun  9 2014 15:16:27
_STATISTICS_WRITING_DATE_UTC             : 2014-06-18 14:17:55
_STATISTICS_TAGS                         : BPS DURATION NUMBER_OF_FRAMES NUMBER_OF_BYTES

Audio #1
ID                                       : 2
Format                                   : AC-3
Format/Info                              : Audio Coding 3
Mode extension                           : CM (complete main)
Format settings, Endianness              : Big
Codec ID                                 : A_AC3
Duration                                 : 1h 32mn
Bit rate mode                            : Constant
Bit rate                                 : 192 Kbps
Channel(s)                               : 2 channels
Channel positions                        : Front: L R
Sampling rate                            : 48.0 KHz
Bit depth                                : 16 bits
Compression mode                         : Lossy
Delay relative to video                  : 12ms
Stream size                              : 127 MiB (3%)
Title                                    : DVO [Novyj] 2.0 192 kbps [Hurtom-patriot2305] [-20ms]
Language                                 : Ukrainian
Default                                  : Yes
Forced                                   : Yes

Audio #2
ID                                       : 3
Format                                   :
Format/Info                              : Digital Theater Systems
Mode                                     : 16
Format settings, Endianness              : Big
Codec ID                                 : A_DTS
Duration                                 : 1h 32mn
Bit rate mode                            : Constant
Bit rate                                 : 1 509 Kbps
Channel(s)                               : 6 channels
Channel positions                        : Front: L C R, Side: L R, LFE
Sampling rate                            : 48.0 KHz
Bit depth                                : 24 bits
Compression mode                         : Lossy
Stream size                              : 1 002 MiB (22%)
Title                                    : Original 5.1 1536 Kbps
Language                                 : English
Default                                  : No
Forced                                   : No

Text
ID                                       : 4
Format                                   : UTF-8
Codec ID                                 : S_TEXT/UTF8
Codec ID/Info                            : UTF-8 Plain Text
Title                                    : Eng full
Language                                 : English
Default                                  : No
Forced                                   : No

Menu
00:00:00.000                             : :00:00:00.000
00:04:29.310                             : :00:04:29.310
00:07:36.706                             : :00:07:36.706
00:11:18.552                             : :00:11:18.552
00:16:14.348                             : :00:16:14.348
00:21:19.736                             : :00:21:19.736
00:25:27.943                             : :00:25:27.943
00:29:37.233                             : :00:29:37.233
00:32:50.426                             : :00:32:50.426
00:35:28.793                             : :00:35:28.793
00:39:45.091                             : :00:39:45.091
00:41:17.933                             : :00:41:17.933
00:44:16.904                             : :00:44:16.904
00:45:47.661                             : :00:45:47.661
00:49:12.658                             : :00:49:12.658
00:53:31.708                             : :00:53:31.708
00:58:10.987                             : :00:58:10.987
01:01:48.079                             : :01:01:48.079
01:03:46.030                             : :01:03:46.030
01:05:40.936                             : :01:05:40.936
01:08:51.085                             : :01:08:51.085
01:12:28.427                             : :01:12:28.427
01:16:14.987                             : :01:16:14.987
01:22:14.137                             : :01:22:14.137
01:26:04.909                             : :01:26:04.909




Джерела та подяки: &
ріп відео, оригінальні звук та субтитри - madoff (HDClub); українська доріжка - patriot2305 - зведення, Sando7 та POMEO - запис з ТБ (всі - Гуртом).


ЗАЛИШАЙТЕСЬ ЯКОМОГА ДОВШЕ НА РОЗДАЧІ!

СКАЧАВ САМ - ДАЙ СКАЧАТИ ІНШИМ


Срібний реліз (на рейтинг впливає 50% завантаженого)
 Трекер:    Зареєстрований   

Завантажити / скачати фільм українською



відео для новачків



 Зареєстрований:   2014-06-18 17:39
 Розмір:   4.44 GB 
 Оцінка фільму:   4.3/10 (Голосів: 16)
   
Інші релізи
Oleksa9 
Поважний учасник


З нами з: 17.05.12
Востаннє: 05.12.16
Повідомлень: 225

2014-06-18 20:49  
Monsters = Чудовиська
Ваш часовий пояс: GMT + 2 Години

Нова тема   Відповісти