Завантажити та скачати торренти українською


Крокодил Данді. Дилогія / Crocodile Dundee. Dilogy (1986-1988) 720p Ukr/Eng | Sub Eng

Нові коментарі

Нова тема   Відповісти
Автор Повідомлення
Anonymous 







2014-06-18 08:14  
Крокодил Данді. Дилогія / Crocodile Dundee. Dilogy (1986-1988) 720p Ukr/Eng | Sub Eng



Жанр: комедія, пригодницький
Сюжет:
Веселі та небезпечні пригоди австралійського мисливця за крокодилами Міка Данді та його подруги Сью у тропічних джунглях Австралії та залізобетонних джунглях Нью-Йорка.

Рейтинг MPAA: PG-13, PG
Вікова категорія: 12+

Крокодил Данді / Crocodile Dundee (1986) 720p Ukr/Eng | Sub Eng

Крокодил Данді / Crocodile Dundee (1986) 720p Ukr/Eng | Sub Eng



Жанр: комедія, пригодницький
Країна: Австралія



Кінокомпанія: Rimfire Films, Paramount Pictures
Режисер: Пітер Феймен / Peter Faiman
Актори: Пол Гоґан, Лінда Козловскі, Джон Мейллон, Марк Блум, Річі Сінґер та інші

Сюжет:
Сью Чарлтон, молода журналістка з Нью-Йорка, дочка газетного магната, вирішує зробити репортаж про Міка Данді на прізвисько Крокодил, австралійського мисливця за рептиліями. Після поїздки до Австралії, де Данді займається своїм небезпечним промислом, вона повертається до Америки, а відважний "оссі" (так американці в'їдливо величають жителів п'ятого континенту), який закохався в Сью, вирушає вслід за нею в кам'яні "джунглі" Нью-Йорка...


Рейтинг MPAA: PG-13 - дітям до 13 років перегляд не бажаний
Вікова категорія: 12+

Тривалість: 01:37:41
Якість: 720p
Відео:
кодек:
розмір кадру: 1280x544
бітрейт: 5350 кбіт/с

Аудіо # 1:
мова: українська
переклад: двоголосий закадровий
кодек: 2.0
бітрейт: 192 кбіт/с

Аудіо # 2:
мова: англійська
переклад: оригінал
кодек: 2.0
бітрейт: 224 кбіт/с

Субтитри:
мова: англійська
тип: програмні (м'які)
формат: *.srt

Збережено оригінальні розділи, як на Blu-ray.
MediaInfo
Код:
General
Unique ID                                : 232075219007077188145360096156742519593 (0xAE980FB5864C28DA807EE993C5C30B29)
Complete name                            : Crocodile Dundee (1986) [Ukr,Eng sub.Eng] 720p [Hurtom].mkv
Format                                   : Matroska
Format version                           : Version 4 / Version 2
File size                                : 3.93 GiB
Duration                                 : 1h 37mn
Overall bit rate                         : 5 766 Kbps
Movie name                               : Крокодил Данді / Crocodile Dundee / (1986) 720p [Hurtom & MediaClub]
Encoded date                             : UTC 2014-06-17 23:15:34
Writing application                      : mkvmerge v7.0.0 ('Where We Going') 64bit built on Jun  9 2014 15:16:27
Writing library                          : libebml v1.3.0 + libmatroska v1.4.1
DURATION                                 : 01:32:45.298000000
NUMBER_OF_FRAMES                         : 967
NUMBER_OF_BYTES                          : 29415
_STATISTICS_WRITING_APP                  : mkvmerge v7.0.0 ('Where We Going') 64bit built on Jun  9 2014 15:16:27
_STATISTICS_WRITING_DATE_UTC             : 2014-06-17 23:15:34
_STATISTICS_TAGS                         : BPS DURATION NUMBER_OF_FRAMES NUMBER_OF_BYTES

Video
ID                                       : 1
Format                                   : AVC
Format/Info                              : Advanced Video Codec
Format profile                           : [email protected]
Format settings, CABAC                   : Yes
Format settings, ReFrames                : 9 frames
Codec ID                                 : V_MPEG4/ISO/AVC
Duration                                 : 1h 37mn
Bit rate                                 : 5 350 Kbps
Width                                    : 1 280 pixels
Height                                   : 544 pixels
Display aspect ratio                     : 2.35:1
Frame rate mode                          : Constant
Frame rate                               : 23.976 fps
Color space                              : YUV
Chroma subsampling                       : 4:2:0
Bit depth                                : 8 bits
Scan type                                : Progressive
Bits/(Pixel*Frame)                       : 0.320
Stream size                              : 3.57 GiB (91%)
Title                                    : Крокодил Данді / Crocodile Dundee / Крокодил Данди (1986) 720p [MediaClub-Painter]
Writing library                          : core 142 r2409+42 04be48a tMod [[email protected]:2:0 X86]
Encoding settings                        : cabac=1 / ref=9 / deblock=1:-3:-3 / analyse=0x3:0x133 / me=umh / subme=11 / psy=1 / fade_compensate=0.00 / psy_rd=1.00:0.20 / mixed_ref=1 / me_range=32 / chroma_me=1 / trellis=2 / 8x8dct=1 / cqm=0 / deadzone=21,11 / fast_pskip=0 / chroma_qp_offset=-3 / threads=6 / lookahead_threads=1 / sliced_threads=0 / nr=0 / decimate=0 / interlaced=0 / bluray_compat=0 / constrained_intra=0 / fgo=0 / bframes=8 / b_pyramid=2 / b_adapt=2 / b_bias=0 / direct=3 / weightb=1 / open_gop=0 / weightp=2 / keyint=240 / keyint_min=23 / scenecut=40 / intra_refresh=0 / rc=2pass / mbtree=0 / bitrate=5350 / ratetol=1.0 / qcomp=0.60 / qpmin=0:0:0 / qpmax=69:69:69 / qpstep=4 / cplxblur=20.0 / qblur=0.5 / ip_ratio=1.40 / pb_ratio=1.30 / aq=2:1.00 / aq-sensitivity=10.00 / aq-factor=1.00:1.00:1.00 / aq2=0 / aq3=0
Language                                 : English
Default                                  : Yes
Forced                                   : No
DURATION                                 : 01:37:41.898000000
NUMBER_OF_FRAMES                         : 140545
NUMBER_OF_BYTES                          : 3918468550
_STATISTICS_WRITING_APP                  : mkvmerge v7.0.0 ('Where We Going') 64bit built on Jun  9 2014 15:16:27
_STATISTICS_WRITING_DATE_UTC             : 2014-06-17 23:15:34
_STATISTICS_TAGS                         : BPS DURATION NUMBER_OF_FRAMES NUMBER_OF_BYTES

Audio #1
ID                                       : 2
Format                                   : AC-3
Format/Info                              : Audio Coding 3
Format profile                           : Dolby Digital
Mode extension                           : CM (complete main)
Format settings, Endianness              : Big
Codec ID                                 : A_AC3
Duration                                 : 1h 37mn
Bit rate mode                            : Constant
Bit rate                                 : 192 Kbps
Channel(s)                               : 2 channels
Channel positions                        : Front: L R
Sampling rate                            : 48.0 KHz
Bit depth                                : 16 bits
Compression mode                         : Lossy
Stream size                              : 134 MiB (3%)
Title                                    : DVO [Novyj] 2.0 192 Kbps [Hurtom-Lan]
Language                                 : Ukrainian
Default                                  : Yes
Forced                                   : Yes

Audio #2
ID                                       : 3
Format                                   : AC-3
Format/Info                              : Audio Coding 3
Mode extension                           : CM (complete main)
Format settings, Endianness              : Big
Codec ID                                 : A_AC3
Duration                                 : 1h 37mn
Bit rate mode                            : Constant
Bit rate                                 : 224 Kbps
Channel(s)                               : 2 channels
Channel positions                        : Front: L R
Sampling rate                            : 48.0 KHz
Bit depth                                : 16 bits
Compression mode                         : Lossy
Stream size                              : 157 MiB (4%)
Title                                    : Original 2.0 224 Kbps
Language                                 : English
Default                                  : No
Forced                                   : No

Text
ID                                       : 4
Format                                   : UTF-8
Codec ID                                 : S_TEXT/UTF8
Codec ID/Info                            : UTF-8 Plain Text
Title                                    : Eng full
Language                                 : English
Default                                  : No
Forced                                   : No

Menu
00:00:00.000                             : :Chapter 01
00:07:18.604                             : :Chapter 02
00:13:53.582                             : :Chapter 03
00:20:16.131                             : :Chapter 04
00:29:51.956                             : :Chapter 05
00:33:00.770                             : :Chapter 06
00:40:05.444                             : :Chapter 07
00:50:57.471                             : :Chapter 08
00:53:27.746                             : :Chapter 09
00:57:39.497                             : :Chapter 10
01:04:50.636                             : :Chapter 11
01:11:16.230                             : :Chapter 12
01:14:12.531                             : :Chapter 13
01:23:52.652                             : :Chapter 14
01:31:08.796                             : :Chapter 15
01:34:10.311                             : :Chapter 16




Джерела та подяки: &
ріп відео, оригінальні звук та субтитри - Painter (MediaClub); українська доріжка - Lan - зведення, Hulk1987, robotron005, ua2004- запис з ТБ; українізований постер - Mister rock (всі - Гуртом).
Окрема подяка пану Mister rock та його подрузі пані Марині за озвучення невеликої сцени на початку фільму, яка чомусь не увійшла в трансляцію на українському телебаченні.

Крокодил Данді 2 / Crocodile Dundee II (1988) 720p Ukr/Eng | Sub Multi

Крокодил Данді 2 / Crocodile Dundee II (1988) 720p Ukr/Eng | Sub Multi



Жанр: бойовик, комедія, пригодницький
Країна: Австралія, США



Кінокомпанія: Rimfire Films, Paramount Pictures
Режисер: Джон Корнелл / John Cornell
Актори: Пол Хоган / Paul Hogan, Лінда Козловські / Linda Kozlowski, Джон Мейллон / John Meillon, Меґґі Блінко / Maggie Blinco, Стів Рекман / Steve Rackman, Гехтер Убаррі / Hechter Ubarry, Хуан Фернандез / Juan Fernández, Чарльз Даттон / Charles S. Dutton, Кеннет Велш / Kenneth Welsh, Денніс Бутсікаріс / Dennis Boutsikaris та інші

Сюжет:
Данді, мисливець на крокодилів, змінив свій австралійський курінь на американський пентхаус: спить у шовковій піжамі і п'є каву з японської порцеляни. Але капелюх з крокодилячими зубами, шкіряні штани і величезний ніж за поясом він собі залишив - про всяк випадок. Чи вистачить цього, щоб врятувати кохану від колумбійської мафії?...


Рейтинг MPAA: PG - рекомендується присутність батьків
Вікова категорія: 10+

Тривалість: 01:51:36
Якість: 720p
Відео:
кодек:
розмір кадру: 1280x546
бітрейт: 12000 кбіт/с

Аудіо # 1:
мова: українська
переклад: двоголосий закадровий
кодек: 5.1
бітрейт: 448 кбіт/с

Аудіо # 2:
мова: англійська
переклад: оригінал
кодек: 5.1
бітрейт: 640 кбіт/с

Субтитри # 1-5:
мова: англійська (повні, SDH), французька, іспанська, португальська
тип: програмні (м'які)
формат: *.srt

Збережено оригінальні розділи, як на Blu-ray.
MediaInfo
Код:
General
Unique ID                   : 235895811216189718096939702475753889433 (0xB177E172C8152FF3B363E253CD1D9E99)
Complete name               : Crocodile Dundee 2 (1988) [Ukr,Eng sub.Multi] 720p [Hurtom&HDClub].mkv
Format                      : Matroska
Format version              : Version 4 / Version 2
File size                   : 10.2 GiB
Duration                    : 1h 51mn
Overall bit rate            : 13.1 Mbps
Movie name                  : Крокодил Данді 2 / Crocodile Dundee 2 (1988) [Ukr,Eng sub.Multi] 720p [Hurtom&HDClub]
Encoded date                : UTC 2015-02-10 10:11:50
Writing application         : mkvmerge v7.6.0 ('Garden of Dreams') 64bit built on Feb  8 2015 13:04:34
Writing library             : libebml v1.3.1 + libmatroska v1.4.2
DURATION                    : 01:50:00.219000000
NUMBER_OF_FRAMES            : 782
NUMBER_OF_BYTES             : 26059
_STATISTICS_WRITING_APP     : mkvmerge v7.6.0 ('Garden of Dreams') 64bit built on Feb  8 2015 13:04:34
_STATISTICS_WRITING_DATE_UT : 2015-02-10 10:11:50
_STATISTICS_TAGS            : BPS DURATION NUMBER_OF_FRAMES NUMBER_OF_BYTES

Video
ID                          : 1
Format                      : AVC
Format/Info                 : Advanced Video Codec
Format profile              : [email protected]
Format settings, CABAC      : Yes
Format settings, ReFrames   : 11 frames
Codec ID                    : V_MPEG4/ISO/AVC
Duration                    : 1h 51mn
Bit rate                    : 12.0 Mbps
Width                       : 1 280 pixels
Height                      : 546 pixels
Display aspect ratio        : 2.35:1
Frame rate mode             : Constant
Frame rate                  : 23.976 fps
Color space                 : YUV
Chroma subsampling          : 4:2:0
Bit depth                   : 8 bits
Scan type                   : Progressive
Bits/(Pixel*Frame)          : 0.716
Stream size                 : 9.15 GiB (90%)
Title                       : Крокодил Данді 2 / Crocodile Dundee II (1988) 720p [TayTO]
Writing library             : core 142 r2431kMod ac76440
Encoding settings           : cabac=1 / ref=11 / deblock=1:-3:-3 / analyse=0x3:0x133 / me=tesa / subme=11 / psy=1 / fade_compensate=0.00 / psy_rd=1.15:0.00 / mixed_ref=1 / me_range=24 / chroma_me=1 / trellis=2 / 8x8dct=1 / cqm=0 / deadzone=21,11 / fast_pskip=0 / chroma_qp_offset=-2 / threads=12 / lookahead_threads=3 / sliced_threads=0 / nr=0 / decimate=1 / interlaced=0 / bluray_compat=0 / constrained_intra=0 / fgo=0 / bframes=13 / b_pyramid=2 / b_adapt=2 / b_bias=0 / direct=3 / weightb=1 / open_gop=0 / weightp=2 / keyint=250 / keyint_min=23 / scenecut=40 / intra_refresh=0 / rc=2pass / mbtree=0 / bitrate=12000 / ratetol=1.0 / qcomp=0.75 / qpmin=0 / qpmax=69 / qpstep=4 / cplxblur=20.0 / qblur=0.5 / ip_ratio=1.40 / pb_ratio=1.30 / aq=1:0.65
Language                    : English
Default                     : Yes
Forced                      : No
Matrix coefficients         : BT.709
Color range                 : Limited
DURATION                    : 01:51:36.774000000
NUMBER_OF_FRAMES            : 160562
NUMBER_OF_BYTES             : 10042177764
_STATISTICS_WRITING_APP     : mkvmerge v7.6.0 ('Garden of Dreams') 64bit built on Feb  8 2015 13:04:34
_STATISTICS_WRITING_DATE_UT : 2015-02-10 10:11:50
_STATISTICS_TAGS            : BPS DURATION NUMBER_OF_FRAMES NUMBER_OF_BYTES

Audio #1
ID                          : 2
Format                      : AC-3
Format/Info                 : Audio Coding 3
Mode extension              : CM (complete main)
Format settings, Endianness : Big
Codec ID                    : A_AC3
Duration                    : 1h 51mn
Bit rate mode               : Constant
Bit rate                    : 448 Kbps
Channel(s)                  : 6 channels
Channel positions           : Front: L C R, Side: L R, LFE
Sampling rate               : 48.0 KHz
Bit depth                   : 16 bits
Compression mode            : Lossy
Stream size                 : 358 MiB (3%)
Title                       : MVO [Novyj] 5.1 448 kbps [Hurtom-robotron005,Lan; HDClub-suzaku]
Language                    : Ukrainian
Default                     : Yes
Forced                      : No

Audio #2
ID                          : 3
Format                      : AC-3
Format/Info                 : Audio Coding 3
Mode extension              : CM (complete main)
Format settings, Endianness : Big
Codec ID                    : A_AC3
Duration                    : 1h 51mn
Bit rate mode               : Constant
Bit rate                    : 640 Kbps
Channel(s)                  : 6 channels
Channel positions           : Front: L C R, Side: L R, LFE
Sampling rate               : 48.0 KHz
Bit depth                   : 16 bits
Compression mode            : Lossy
Stream size                 : 511 MiB (5%)
Title                       : Original 5.1 640 kbps
Language                    : English
Default                     : No
Forced                      : No

Text #1
ID                          : 4
Format                      : UTF-8
Codec ID                    : S_TEXT/UTF8
Codec ID/Info               : UTF-8 Plain Text
Language                    : English
Default                     : No
Forced                      : No

Text #2
ID                          : 5
Format                      : UTF-8
Codec ID                    : S_TEXT/UTF8
Codec ID/Info               : UTF-8 Plain Text
Title                       : SDH
Language                    : English
Default                     : No
Forced                      : No

Text #3
ID                          : 6
Format                      : UTF-8
Codec ID                    : S_TEXT/UTF8
Codec ID/Info               : UTF-8 Plain Text
Language                    : French
Default                     : No
Forced                      : No

Text #4
ID                          : 7
Format                      : UTF-8
Codec ID                    : S_TEXT/UTF8
Codec ID/Info               : UTF-8 Plain Text
Language                    : Spanish
Default                     : No
Forced                      : No

Text #5
ID                          : 8
Format                      : UTF-8
Codec ID                    : S_TEXT/UTF8
Codec ID/Info               : UTF-8 Plain Text
Language                    : Portuguese
Default                     : No
Forced                      : No

Menu
00:00:00.000                : en:00:00:00.000
00:05:09.518                : en:00:05:09.518
00:12:49.560                : en:00:12:49.560
00:17:19.413                : en:00:17:19.413
00:22:41.277                : en:00:22:41.277
00:28:59.488                : en:00:28:59.488
00:33:22.918                : en:00:33:22.918
00:38:39.692                : en:00:38:39.692
00:45:26.015                : en:00:45:26.015
00:50:32.488                : en:00:50:32.488
00:56:54.703                : en:00:56:54.703
01:04:12.891                : en:01:04:12.891
01:13:28.738                : en:01:13:28.738
01:19:48.742                : en:01:19:48.742
01:23:33.508                : en:01:23:33.508
01:28:45.111                : en:01:28:45.111
01:33:08.374                : en:01:33:08.374
01:38:17.892                : en:01:38:17.892
01:43:13.479                : en:01:43:13.479
01:47:43.457                : en:01:47:43.457




Джерела та подяки: &
ріп відео, оригінальні звук та субтитри - TayTO (HDbits), Vitaha94 (HDClub); українська доріжка - Прагматик (HDClub) - зведення, robotron005 (Гуртом) - запис з ТБ; українізований постер - Mister rock (Гуртом)
Особиста оцінка: 8 - мені сподобалося


ЗАЛИШАЙТЕСЬ ЯКОМОГА ДОВШЕ НА РОЗДАЧІ!

СКАЧАВ САМ - ДАЙ СКАЧАТИ ІНШИМ


Срібний реліз (на рейтинг впливає 50% завантаженого)
 Трекер:    Зареєстрований   

Завантажити / скачати фільм українською



відео для новачків



 Зареєстрований:   2015-03-01 12:47
 Розмір:   14.14 GB 
 Оцінка фільму:   6.4/10 (Голосів: 28)
   
Anonymous 







2015-03-01 12:50  
Оновив реліз до дилогії - додав другу частину.
Siegfried 
Свій


З нами з: 01.11.11
Востаннє: 03.12.16
Повідомлень: 81

2015-03-05 21:52  
Фільми - це вже класика в позитивному розумінні цьго слова.
Обидві частини показувалися в київських кінотеатрах ще в радянський час, але зрозуміло, що нажаль не в українському дублюванні.

Категорично рекомендовано до перегляду. Happy

Ваш часовий пояс: GMT + 2 Години

Нова тема   Відповісти