Завантажити та скачати торренти українською


Клік: з пультом по життю / Click (2006) 720p Ukr/Eng

Нові коментарі

Нова тема   Відповісти
Автор Повідомлення
Гірський Кришталь 
Свій


З нами з: 07.01.09
Востаннє: 06.10.16
Повідомлень: 128

2014-06-17 16:09  
Клік: з пультом по життю / Click (2006) 720p Ukr/Eng

Клік: з пультом по життю / Click (2006) 720p Ukr/Eng


Жанр: драма, фентезі, комедія
Країна: США



Режисер: Френк Корачі
Актори: Адам Сендлер, Кейт Бекінсейл, Крістофер Вокен, Девід Хесселхофф, Генрі Вінклер, Джулі Кавнер, Шон Естін, Джозеф Кастанон, Джона Хілл, Джейк Хоффман, Джеймс Ерл Джонс, Рейчел Дреч, Тім Херліхі, Нік Свардсон, Тоші Тода, Кеті Кессіді, Софі Монк, Мішель Ломбардо, , Террі Крюс, Роб Шнайдер, Керолін Хеннесі

Сюжет:
Майкл Ньюмен (Адам Сендлер) - успішний архітектор, кар'єра якого на першому місці і не залишає часу для його коханої дружини Донни (Кейт Бекінсейл) і двох дітей.
Абсолютно зневірившись, він, одним нічним непримітним вечором включає телевізор і купує в TV-SHOP-е пульт віддаленого управління, який, як виявилося згодом, володіє магічною силою - натискуючи на певні кнопки, з його допомогою, можна здійснювати подорожі в потрібний тобі час… Але серце людини легко розбестити і молодий архітектор розгублюється і абсолютно втрачає відчуття часу. Накопичивши власну пам'ять, пульт починає сам керувати швидкістю перемотування і вибором моменту життя. Іграшка перестає розважати і перетворюється на небезпечну зброю, спрямована проти її ж власника.


Тривалість: 01:47:31
Якість:
Відео:
кодек:
розмір кадру: 1280 х 688
бітрейт: 5040 кб/с

Аудіо # 1:
мова: українська
переклад: багатоголосий закадровий
кодек: 5.1
бітрейт: 384 кб/с

Аудіо # 2:
мова: англійська
переклад: оригінал
кодек: 5.1
бітрейт: 384 кб/с

Джерело озвучення:


2pass (log)
[16.06.2014 19:24:10] raw [info]: 1280x528p 1:1 @ 24/1 fps (cfr)
[16.06.2014 19:24:10] [info]: using SAR=1/1
[16.06.2014 19:24:10] [info]: using cpu capabilities: MMX2 SSE2Fast SSSE3 Cache64
[16.06.2014 19:24:10] [info]: profile High, level 3.1
[16.06.2014 19:37:59] [info]: frame I:171 Avg QP:12.61 size: 83788
[16.06.2014 19:37:59] [info]: frame P:1803 Avg QP:14.40 size: 36756
[16.06.2014 19:37:59] [info]: frame B:1875 Avg QP:15.49 size: 10841
[16.06.2014 19:37:59] [info]: consecutive B-frames: 26.2% 22.4% 12.6% 38.8%
[16.06.2014 19:37:59] [info]: mb I I16..4: 9.4% 59.4% 31.1%
[16.06.2014 19:37:59] [info]: mb P I16..4: 3.8% 21.4% 5.4% P16..4: 21.7% 22.2% 12.5% 0.0% 0.0% skip:12.9%
[16.06.2014 19:37:59] [info]: mb B I16..4: 0.6% 1.8% 0.5% B16..8: 29.9% 16.0% 5.8% direct: 6.3% skip:39.0% L0:41.8% L1:40.4% BI:17.8%
[16.06.2014 19:37:59] [info]: 8x8 transform intra:67.0% inter:48.4%
[16.06.2014 19:37:59] [info]: coded y,uvDC,uvAC intra: 67.1% 84.1% 73.9% inter: 26.4% 37.4% 16.9%
[16.06.2014 19:37:59] [info]: i16 v,h,dc,p: 53% 21% 5% 20%
[16.06.2014 19:37:59] [info]: i8 v,h,dc,ddl,ddr,vr,hd,vl,hu: 27% 22% 16% 5% 5% 6% 6% 7% 7%
[16.06.2014 19:37:59] [info]: i4 v,h,dc,ddl,ddr,vr,hd,vl,hu: 25% 21% 8% 6% 9% 9% 8% 7% 7%
[16.06.2014 19:37:59] [info]: i8c dc,h,v,p: 42% 26% 22% 10%
[16.06.2014 19:37:59] [info]: Weighted P-Frames: Y:4.2% UV:3.5%
[16.06.2014 19:37:59] [info]: ref P L0: 73.7% 10.0% 11.9% 4.3% 0.1%
[16.06.2014 19:37:59] [info]: ref B L0: 91.7% 7.3% 1.0%
[16.06.2014 19:37:59] [info]: ref B L1: 96.6% 3.4%


MediaInfo
General
Unique ID : 194808834742968514787309894619409015114 (0x928ED11B86B63C5593DD12FE0159E14A)
Complete name : D:\Video\Click (2006) [Ukr Eng] 720p [Hurtom] by Krysztal.mkv
Format : Matroska
Format version : Version 2
File size : 4.36 GiB
Duration : 1h 47mn
Overall bit rate : 5 809 Kbps
Encoded date : UTC 2014-06-17 13:47:15
Writing application : mkvmerge v4.6.0 ('Still Crazy After All These Years') зібрано Mar 10 2011 02:50:32
Writing library : libebml v1.2.0 + libmatroska v1.1.0

Video
ID : 1
Format : AVC
Format/Info : Advanced Video Codec
Format profile : [email protected]
Format settings, CABAC : Yes
Format settings, ReFrames : 4 frames
Codec ID : V_MPEG4/ISO/AVC
Duration : 1h 47mn
Bit rate : 5 040 Kbps
Width : 1 280 pixels
Height : 688 pixels
Display aspect ratio : 1.85:1
Frame rate mode : Constant
Frame rate : 23.976 fps
Color space : YUV
Chroma subsampling : 4:2:0
Bit depth : 8 bits
Scan type : Progressive
Bits/(Pixel*Frame) : 0.239
Stream size : 3.70 GiB (85%)
Writing library : core 138 r2358 9e941d1
Encoding settings : cabac=1 / ref=3 / deblock=1:-3:-3 / analyse=0x3:0x113 / me=umh / subme=10 / psy=1 / psy_rd=1.00:0.00 / mixed_ref=1 / me_range=64 / chroma_me=1 / trellis=2 / 8x8dct=1 / cqm=0 / deadzone=21,11 / fast_pskip=0 / chroma_qp_offset=-2 / threads=3 / lookahead_threads=1 / sliced_threads=0 / nr=0 / decimate=1 / interlaced=0 / bluray_compat=0 / constrained_intra=0 / bframes=3 / b_pyramid=2 / b_adapt=1 / b_bias=0 / direct=1 / weightb=1 / open_gop=0 / weightp=2 / keyint=240 / keyint_min=23 / scenecut=40 / intra_refresh=0 / rc_lookahead=40 / rc=2pass / mbtree=1 / bitrate=5040 / ratetol=1.0 / qcomp=0.60 / qpmin=10 / qpmax=51 / qpstep=4 / cplxblur=20.0 / qblur=0.5 / vbv_maxrate=62500 / vbv_bufsize=78125 / nal_hrd=none / ip_ratio=1.40 / aq=1:1.00
Language : English
Default : Yes
Forced : No

Audio #1
ID : 2
Format : AC-3
Format/Info : Audio Coding 3
Mode extension : CM (complete main)
Format settings, Endianness : Big
Codec ID : A_AC3
Duration : 1h 47mn
Bit rate mode : Constant
Bit rate : 384 Kbps
Channel count : 6 channels
Channel positions : Front: L C R, Side: L R, LFE
Sampling rate : 48.0 KHz
Bit depth : 16 bits
Compression mode : Lossy
Stream size : 295 MiB (7%)
Title : Україньська доріжка
Language : Ukrainian
Default : Yes
Forced : No

Audio #2
ID : 3
Format : AC-3
Format/Info : Audio Coding 3
Mode extension : CM (complete main)
Format settings, Endianness : Big
Codec ID : A_AC3
Duration : 1h 47mn
Bit rate mode : Constant
Bit rate : 384 Kbps
Channel count : 6 channels
Channel positions : Front: L C R, Side: L R, LFE
Sampling rate : 48.0 KHz
Bit depth : 16 bits
Compression mode : Lossy
Stream size : 295 MiB (7%)
Title : English wave
Language : English
Default : No
Forced : No



Скріншоти




Подяки за:
запис доріжки: Merdiff
підготовлений постер Ermolenko


Джерело:
Особиста оцінка: 10 - без зайвих вагань рекомендую всім!


 Трекер:    Зареєстрований   

Завантажити / скачати фільм українською



відео для новачків



 Зареєстрований:   2014-06-17 16:09
 Розмір:   4.36 GB 
 Оцінка фільму:   9.9/10 (Голосів: 13)
   
Інші релізи
   Клік: з пультом по життю / Click (2006) 1080p Ukr/Eng kvvdvd  1 / 0   7.6 GB   2016-10-17 19:57 
   Клік. Із пультом по життю / Click (2006) patriot2305  2 / 0   1.45 GB   2015-04-13 15:11 
   Клік: з пультом по життю / Click (2006) AVC MasterYura  1 / 0   1.41 GB   2010-10-31 18:30 
   Клік: з пультом по життю / Click (2006) AVC Ukr/Eng MasterYura  1 / 0   2.45 GB   2010-10-25 18:32 
igor911 
Відео Гуртом
Відео Гуртом


З нами з: 18.01.08
Востаннє: 09.12.16
Повідомлень: 5194

2014-06-17 17:02  
Гірський Кришталь, якщо ти сам кодував відео і тобі не важко, додай лог кодування.
Oleksa9 
Поважний учасник


З нами з: 17.05.12
Востаннє: 07.12.16
Повідомлень: 225

2014-06-17 17:30  
Click = Клац, варто уникати калькування.
igor911 
Відео Гуртом
Відео Гуртом


З нами з: 18.01.08
Востаннє: 09.12.16
Повідомлень: 5194

2014-06-17 17:55  
Oleksa9, назва фільму така, як її переклав та озвучив телеканал. Якщо у вас є претензії - пишіть на телеканал.
Oleksa9 
Поважний учасник


З нами з: 17.05.12
Востаннє: 07.12.16
Повідомлень: 225

2014-06-17 20:46  
Хто чи що забороняє написати правильний переклад назви?
igor911 
Відео Гуртом
Відео Гуртом


З нами з: 18.01.08
Востаннє: 09.12.16
Повідомлень: 5194

2014-06-17 20:58  
В коментарях - ніхто Happy
Гірський Кришталь 
Свій


З нами з: 07.01.09
Востаннє: 06.10.16
Повідомлень: 128

2014-06-17 22:05  
Мені подобається клік
lpershyi 
Попереджень: 2
Попереджень: 2 


З нами з: 04.01.11
Востаннє: 30.11.16
Повідомлень: 2622

2014-06-18 05:54  
Цитата:
багатоголосий закадровий
а вже був на хвилі подумав, що дубляж Sad (1)
valentin66658 
Новенький


З нами з: 26.01.16
Востаннє: 05.12.16
Повідомлень: 8

2016-10-19 10:25  
дайте роздачу чи я буду качати дві неділі це клятий фільм ?
igor911 
Відео Гуртом
Відео Гуртом


З нами з: 18.01.08
Востаннє: 09.12.16
Повідомлень: 5194

2016-10-19 10:28  
valentin66658 написано:
Рейтинг: 0.02

Саме через таких, як ти будеш його качати два тижні, бо одразу звалюєш з роздачі.
ЗАЛИШАЙТЕСЬ ЯКОМОГА ДОВШЕ НА РОЗДАЧІ!
СКАЧАВ САМ - ДАЙ СКАЧАТИ ІНШИМ !

Oleksa9 
Поважний учасник


З нами з: 17.05.12
Востаннє: 07.12.16
Повідомлень: 225

2016-10-19 12:41  
igor911
Ну хтось може лише один день на тиждень завантажувати, лише у неділю.... Wide grin Бо ж інакше це порушення правил - дозволена лише літературна українська мова, а не суржик.

igor911 
Відео Гуртом
Відео Гуртом


З нами з: 18.01.08
Востаннє: 09.12.16
Повідомлень: 5194

2016-10-19 12:45  
Oleksa9, не вловив зв'язку у твоєму вислові між суржиком та совістю роздавати вже завантажене.
Ваш часовий пояс: GMT + 2 Години

Нова тема   Відповісти