Завантажити та скачати торренти українською


Як повинно було закінчитися (Серій: 1/93) / How It Should Have Ended (Episodes: 1/93) (2010 - 2014) 720p Ukr/Eng

Нові коментарі

Нова тема   Відповісти
Автор Повідомлення
Ukr Voice Team 
Відео Гуртом - озвучення
Відео Гуртом - озвучення


З нами з: 31.12.13
Востаннє: 11.08.15
Повідомлень: 61

2014-06-15 21:34  
Як повинно було закінчитися (Серій: 1/93) / How It Should Have Ended (Episodes: 1/93) (2010 - 2014) 720p Ukr/Eng

Як повинно було закінчитися (Серій: 1/93) / How It Should Have Ended (Episodes: 1/93) (2010 - 2014) 720p Ukr/Eng


Жанр: пародія, інтернет серії, альтернативне закінчення, анімація, комедія
Країна: США



Режисер: Деніел Ґідлоу / Daniel Gidlow
Актори/ролі озвучують: Деніел Ґідлоу, Макс Лоренцо / Daniel Gidlow, Max Lorenzo та інші

Сюжет:
Ви коли-небудь розчаровувалися в кінцівці очікуваного вами фільму, на який покладали великі надії? Якщо так, то у вас є гарна можливість побачити альтернативний розвиток сюжету всіх популярних блокбастерів, а заодно підняти собі настрій. У коротких мальованих пародіях, ми побачимо як герої, що нам полюбилися говорять і роблять дурниці, опиняються в безглуздих ситуаціях і перевертають все з ніг на голову. З боку їх дії здадуться нелогічними, особливо якщо ви не дивилися оригінал фільму і тільки знавці зрозуміють всю іронію і сенс.


Тривалість: 1 серія: 02:00 (цілком серій: 93)
Перелік серій
1. "2012"
Якість:
Відео:
кодек:
розмір кадру: 1 280 х 720
бітрейт: ~1 285 кб/с

Аудіо # 1:
мова: українська
переклад: одноголосий закадровий | UkrVoiceTeam (Ролі озвучував: Остап Карвацький)
кодек: 5.1
бітрейт: 448 кб/с

Аудіо # 2:
мова: англійська
переклад: оригінал
кодек: 2.0
бітрейт: 192 кб/с

Джерело озвучення: UkrVoiceTeam
Скріншоти


MediaInfo
General
Unique ID : 206715552155057180261685618514308076463 (0x9B83F7998A7189D6ACB9CD637F3793AF)
Complete name : D:\Завантаження\Озвучене\How it Should Have Ended [UkrVoiceTeam]\How 2012 Should Have Ended [UkrVoiceTeam].mkv
Format : Matroska
Format version : Version 4 / Version 2
File size : 28.3 MiB
Duration : 2mn 0s
Overall bit rate : 1 964 Kbps
Encoded date : UTC 2014-06-15 19:08:47
Writing application : mkvmerge v6.6.0 ('The Edge Of The In Between') built on Dec 1 2013 17:55:00
Writing library : libebml v1.3.0 + libmatroska v1.4.1

Video
ID : 1
Format : AVC
Format/Info : Advanced Video Codec
Format profile : [email protected]
Format settings, CABAC : Yes
Format settings, ReFrames : 1 frame
Codec ID : V_MPEG4/ISO/AVC
Duration : 2mn 0s
Bit rate : 1 285 Kbps
Width : 1 280 pixels
Height : 720 pixels
Display aspect ratio : 16:9
Frame rate mode : Constant
Frame rate : 23.976 fps
Color space : YUV
Chroma subsampling : 4:2:0
Bit depth : 8 bits
Scan type : Progressive
Bits/(Pixel*Frame) : 0.058
Stream size : 18.5 MiB (65%)
Default : Yes
Forced : No

Audio #1
ID : 2
Format : AC-3
Format/Info : Audio Coding 3
Mode extension : CM (complete main)
Format settings, Endianness : Big
Codec ID : A_AC3
Duration : 2mn 0s
Bit rate mode : Constant
Bit rate : 448 Kbps
Channel(s) : 6 channels
Channel positions : Front: L C R, Side: L R, LFE
Sampling rate : 48.0 KHz
Bit depth : 16 bits
Compression mode : Lossy
Stream size : 6.46 MiB (23%)
Title : UkrVoiceTeam
Language : Ukrainian
Default : Yes
Forced : No

Audio #2
ID : 3
Format : AC-3
Format/Info : Audio Coding 3
Mode extension : CM (complete main)
Format settings, Endianness : Big
Codec ID : A_AC3
Duration : 2mn 0s
Bit rate mode : Constant
Bit rate : 192 Kbps
Channel(s) : 2 channels
Channel positions : Front: L R
Sampling rate : 48.0 KHz
Bit depth : 16 bits
Compression mode : Lossy
Stream size : 2.77 MiB (10%)
Title : оригінал
Language : English
Default : No
Forced : No
Джерело: &
Особиста оцінка: 10 - без зайвих вагань рекомендую всім!


Авторський реліз (завантажувати можна без реєстрації)
 Трекер:    Зареєстрований   

Завантажити / скачати мультфільм українською



відео для новачків



 Зареєстрований:   2014-06-15 21:44
 Розмір:   28 MB 
 Оцінка мультсеріалу:   9.3/10 (Голосів: 9)
 How it Should Have Ended [UkrVoiceTeam]
   
Ваш часовий пояс: GMT + 2 Години

Нова тема   Відповісти