Завантажити та скачати торренти українською


NOVI - RЕФLEKSIЯ [EP] (2014) [FLAC] | Rock

Нові коментарі

Нова тема   Відповісти
Останній раз роздавалося natashelka (2016-12-03)
Автор Повідомлення
vamp69 
Поважний учасник


З нами з: 06.07.09
Востаннє: 30.11.16
Повідомлень: 173

2014-06-14 10:43  
NOVI - RЕФLEKSIЯ [EP] (2014) [FLAC] | Rock

NOVI - RЕФLEKSIЯ [EP] (2014) [FLAC] | Rock


Стиль: Art Rock
Країна, місто: Україна, Київ
Видавець: гурт
Виконавці:
Дарія Науменко – вокал, клавіші
Руслан Вакулюк – бас-гітара
Олексій Андронов – ударні
Олександр Зубрицький – гітара
Пісні:
    1. Хай буде мир 3:54
    2. Мандрівник 3:33
    3. Малюнок 3:49

Тривалість: 00:11:15
Мова: українська
Аудіо-кодек: FLAC
Бітрейт: 1044 кб/с
Джерело: мій CD
log
Exact Audio Copy V1.0 beta 3 from 29. August 2011

EAC extraction logfile from 14. June 2014, 9:11

NOVI / REФLEKSIЯ

Used drive : ATAPI iHAS124 B Adapter: 4 ID: 0

Read mode : Secure
Utilize accurate stream : Yes
Defeat audio cache : Yes
Make use of C2 pointers : No

Read offset correction : 6
Overread into Lead-In and Lead-Out : No
Fill up missing offset samples with silence : Yes
Delete leading and trailing silent blocks : No
Null samples used in CRC calculations : Yes
Used interface : Native Win32 interface for Win NT & 2000

Used output format : Internal WAV Routines
Sample format : 44.100 Hz; 16 Bit; Stereo

TOC of the extracted CD

Track | Start | Length | Start sector | End sector
---------------------------------------------------------
1 | 0:00.00 | 3:54.11 | 0 | 17560
2 | 3:54.11 | 3:33.59 | 17561 | 33594
3 | 7:27.70 | 3:47.37 | 33595 | 50656
4 | 13:47.32 | 50:52.01 | 62057 | 290957

Range status and errors

Selected range

Filename I:\Українська музика\NOVI - 2014 - REФLEKSIЯ\NOVI - 2014 - REФLEKSIЯ.wav

Peak level 95.0 %
Extraction speed 4.6 X
Range quality 100.0 %
Test CRC 782CE202
Copy CRC 782CE202
Copy OK

No errors occurred

AccurateRip summary

Track 1 not present in database
Track 2 not present in database
Track 3 not present in database

None of the tracks are present in the AccurateRip database

End of status report

---- CUETools DB Plugin V2.1.3

[CTDB TOCID: 18MIChB0Sz._2O9j7T4Az9LOdXY-] disk not present in database, Submit result: 18MIChB0Sz._2O9j7T4Az9LOdXY- has been uploaded

==== Log checksum CDB108ACEC6358E77E2AAD9BD1126550837CEB3846D7D295E7D3F9A00AE153B4 ====


Срібний реліз (на рейтинг впливає 50% завантаженого)
 Трекер:    Зареєстрований   

Завантажити / скачати українську музику



відео для новачків



 Зареєстрований:   2014-06-14 10:43
 Розмір:   226 MB 
 Оцінка музики:   10/10 (Голосів: 6)
   
ssTAss 
Модератор музики


З нами з: 05.07.08
Востаннє: 03.12.16
Повідомлень: 10932

2014-06-15 20:31  
vamp69 написано:
Сайти: Офіційний сайт

посилання на соц. мережі заборонені
додайте під спойлером вміст лог-файлу

natashelka 
VIP


З нами з: 23.05.10
Востаннє: 03.12.16
Повідомлень: 441

2015-05-16 09:45  
віддалено ТАРТАК нагадує, музикою
Dragobrat11 
Новенький


З нами з: 11.08.13
Востаннє: 03.12.16
Повідомлень: 6

2016-08-06 07:37  
Шановне товариство, у мене до вас є одне маленьке, але таки - ВЕЛИКЕ прохання: будь ласка допоможіть цьому чудовому українському гурту. Окрім - без жодного перебільшення - НЕПЕРЕВЕРШЕНОЇ арт-рокової музики, цей гурт обов’язково потрібно підтримати - хоча б, ще з тої причини, що їхня фронтвумен належить до дуже-дуже рідкісних - у наш час - неймовірно добрих, чуттєвих людей. Будь ласка, оцініть кліпи цього гурту - і якщо вам дійсно сподобалось, то я вас, просто благаю: підпишіться на їхній ютьюбівскький канал, на фейсбук, але найідеальніший варіант - на їхню сторінку вконтакті. І звичайно ж - обов’язково лайкайте, робіть репости, пишіть у їхній спільноті коментарі. Будь ласка допоможіть!

P.S. Якщо, не можете, або не хочете допомагати, то хоча би не починайте сварку через "вконтахті" - я все одно не буду сперечатись.

P.S.S. Шановні Пані та Панове, будь ласка, допоможіть! - ну це ж зовсім не складно...



Ваш часовий пояс: GMT + 2 Години

Нова тема   Відповісти