Завантажити та скачати торренти українською


Людина невидимка. Дилогія / Hollow Man. Dilogy (2000, 2006) 720p Ukr/Eng | Sub Eng

Нові коментарі

Нова тема   Відповісти
Автор Повідомлення
Anonymous 







2014-06-12 20:54  
Людина невидимка. Дилогія / Hollow Man. Dilogy (2000, 2006) 720p Ukr/Eng | Sub Eng

Невидимка (Режисерська версія) / Hollow Man (Director's Cut) (2000) 720p Ukr/Eng | Sub Eng

Невидимка (Режисерська версія) / Hollow Man (Director's Cut) (2000) 720p Ukr/Eng | Sub Eng



Жанр: фантастика, трилер
Країна: США, Німеччина



Кінокомпанія: Columbia Pictures Corporation, Global Entertainment Productions GmbH & Company Medien KG
Режисер: Пол Верховен / Paul Verhoeven
Актори: Кевін Бейкон / Kevin Bacon, Вільям Дівайн / William Devane, Елізабет Шу / Elisabeth Shue, Джош Бролін / Josh Brolin, Кім Діккенс / Kim Dickens, Джоі Слотник / Joey Slotnick та інші

Сюжет:
Професор Себастіан Кейн (Кевін Бейкон) шукає формулу невидимості. Він вже навчився робити невидимими тварин. Але експеримент не можна вважати завершеним, поки не буде знайдена формула "повернення" - невидимий об'єкт повинен знову знайти плоть і кров.

Після довгих пошуків Кейн знаходить шукану формулу і успішно повертає в світ реальних обрисів горилу. Залишається завершальний акорд -
здійснити повний цикл на людині. Як справжній вчений, Кейн вирішує зробити цей дослід на собі...


Рейтинг MPAA: R - особам до 17 років обов'язкова присутність батьків або дорослого опікуна
Вікова категорія: 16+

Тривалість: 01:59:14 (відмінності Режисерської та Театральної версій)
Якість: 720p
Відео:
кодек:
розмір кадру: 1280 х 692
бітрейт: 6750 кбіт/с

Аудіо # 1:
мова: українська - Так Треба Продакшн на замовлення Інтера
переклад: багатоголосий закадровий (неозвучені місця режисерської версії озвучив _oles сам)
кодек: 5.1
бітрейт: 448 кбіт/с

Аудіо # 2:
мова: англійська
переклад: оригінал
кодек: 5.1
бітрейт: 1536 кбіт/с

Субтитри:
мова: англійська
тип: програмні (м'які)
формат: *.srt
MediaInfo
Код:
General
Unique ID                                : 202932643742639532982250698590166906236 (0x98AB67D0AAD9E852B7665974E9AEF57C)
Complete name                            : Hollow Man (Director's cut) (2000) [Ukr,Eng sub.Eng] 720p [Hurtom].mkv
Format                                   : Matroska
Format version                           : Version 4 / Version 2
File size                                : 7.25 GiB
Duration                                 : 1h 59mn
Overall bit rate                         : 8 706 Kbps
Movie name                               : Невидимка / Hollow Man [Director's Cut] (2000) 720p [Hurtom]
Encoded date                             : UTC 2014-06-12 11:24:17
Writing application                      : mkvmerge v7.0.0 ('Where We Going') 64bit built on Jun  9 2014 15:16:27
Writing library                          : libebml v1.3.0 + libmatroska v1.4.1
DURATION                                 : 01:48:03.540000000
NUMBER_OF_FRAMES                         : 1069
NUMBER_OF_BYTES                          : 34406
_STATISTICS_WRITING_APP                  : mkvmerge v7.0.0 ('Where We Going') 64bit built on Jun  9 2014 15:16:27
_STATISTICS_WRITING_DATE_UTC             : 2014-06-12 11:24:17
_STATISTICS_TAGS                         : BPS DURATION NUMBER_OF_FRAMES NUMBER_OF_BYTES

Video
ID                                       : 1
Format                                   : AVC
Format/Info                              : Advanced Video Codec
Format profile                           : [email protected]
Format settings, CABAC                   : Yes
Format settings, ReFrames                : 8 frames
Codec ID                                 : V_MPEG4/ISO/AVC
Duration                                 : 1h 59mn
Bit rate                                 : 6 750 Kbps
Width                                    : 1 280 pixels
Height                                   : 692 pixels
Display aspect ratio                     : 1.85:1
Frame rate mode                          : Constant
Frame rate                               : 23.976 fps
Color space                              : YUV
Chroma subsampling                       : 4:2:0
Bit depth                                : 8 bits
Scan type                                : Progressive
Bits/(Pixel*Frame)                       : 0.318
Stream size                              : 5.48 GiB (76%)
Title                                    : Невидимка / Hollow Man [Director's Cut] (2000) 720p [Kinozal.TV-Yoker]
Writing library                          : core 80 r1376M 3feaec2
Encoding settings                        : cabac=1 / ref=8 / deblock=1:-3:-3 / analyse=0x3:0x133 / me=umh / subme=9 / psy=1 / psy_rd=1.0:0.1 / mixed_ref=1 / me_range=48 / chroma_me=1 / trellis=2 / 8x8dct=1 / cqm=0 / deadzone=21,11 / fast_pskip=0 / chroma_qp_offset=-3 / threads=6 / sliced_threads=0 / nr=0 / decimate=1 / mbaff=0 / constrained_intra=0 / bframes=4 / b_pyramid=2 / b_adapt=2 / b_bias=0 / direct=3 / wpredb=1 / wpredp=2 / keyint=250 / keyint_min=25 / scenecut=40 / rc_lookahead=60 / rc=2pass / mbtree=1 / bitrate=6750 / ratetol=1.0 / qcomp=0.70 / qpmin=10 / qpmax=51 / qpstep=4 / cplxblur=20.0 / qblur=0.5 / ip_ratio=1.40 / aq=1:1.00
Language                                 : English
Default                                  : Yes
Forced                                   : Yes
DURATION                                 : 01:59:14.868000000
NUMBER_OF_FRAMES                         : 171545
NUMBER_OF_BYTES                          : 6032802674
_STATISTICS_WRITING_APP                  : mkvmerge v7.0.0 ('Where We Going') 64bit built on Jun  9 2014 15:16:27
_STATISTICS_WRITING_DATE_UTC             : 2014-06-12 11:24:17
_STATISTICS_TAGS                         : BPS DURATION NUMBER_OF_FRAMES NUMBER_OF_BYTES

Audio #1
ID                                       : 2
Format                                   : AC-3
Format/Info                              : Audio Coding 3
Mode extension                           : CM (complete main)
Format settings, Endianness              : Big
Codec ID                                 : A_AC3
Duration                                 : 1h 59mn
Bit rate mode                            : Constant
Bit rate                                 : 448 Kbps
Channel(s)                               : 6 channels
Channel positions                        : Front: L C R, Side: L R, LFE
Sampling rate                            : 48.0 KHz
Bit depth                                : 16 bits
Compression mode                         : Lossy
Delay relative to video                  : 1ms
Stream size                              : 382 MiB (5%)
Title                                    : MVO [TakTrebaProduction-Inter] 5.1 448 Kbps [Hurtom-_oles] [-31ms]
Language                                 : Ukrainian
Default                                  : Yes
Forced                                   : Yes

Audio #2
ID                                       : 3
Format                                   :
Format/Info                              : Digital Theater Systems
Mode                                     : 16
Format settings, Endianness              : Big
Codec ID                                 : A_DTS
Duration                                 : 1h 59mn
Bit rate mode                            : Constant
Bit rate                                 : 1 510 Kbps
Channel(s)                               : 6 channels
Channel positions                        : Front: L C R, Side: L R, LFE
Sampling rate                            : 48.0 KHz
Bit depth                                : 24 bits
Compression mode                         : Lossy
Stream size                              : 1.26 GiB (17%)
Title                                    : Original 5.1 1536 Kbps
Language                                 : English
Default                                  : No
Forced                                   : No

Text
ID                                       : 4
Format                                   : UTF-8
Codec ID                                 : S_TEXT/UTF8
Codec ID/Info                            : UTF-8 Plain Text
Title                                    : Eng full
Language                                 : English
Default                                  : No
Forced                                   : No
Людина невидимка 2 / Hollow Man 2 (2006) 720p 2xUkr/Eng | Sub Eng

Людина невидимка 2 / Hollow Man 2 (2006) 720p 2xUkr/Eng | Sub Eng



Жанр: жахи, фантастика, бойовик, трилер
Країна: США



Кінокомпанія: Destination Films, Red Wagon Entertainment, Frontera Productions
Режисер: Клаудіо Фах / Claudio Fah
Актори: Крістіан Слейтер / Christian Slater, Пітер Фасінеллі / Peter Facinelli, Лаура Ріган / Laura Regan, Девід Макілрайт / David McIlwraith, Вільям МакДональд / William MacDonald, Сара Дікінс / Sarah Deakins, Джессіка Хермон / Jessica Harmon та інші

Сюжет:
Експерименти по досягненню невидимості людини увінчалися успіхом: військові, що мріяли про ідеального шпигуна і диверсанта, в повному захваті. Але вченим так і не вдалося справитися з побічними ефектами нової технології — у невидимок різко підвищується рівень агресії і психічної нестабільності.
В один жахливий день черговий піддослідний по імені Майкл Гріффін виходить з-під контролю і вириваєтся на волю. Лише дві людини, що знають таємницю невидимого вбивці — Френк Тернер і біолог Меггі Далтон — здатні зупинити його. Але спецслужби не мають бажання бути притягнутими до відповідальності зе те, що випустили на волю невидимого монстра. І готові на все, щоби заставити героїв замовчати навіки — як і сам Гріффін…


Рейтинг MPAA: R - особам до 17 років обов'язкова присутність батьків або дорослого опікуна
Вікова категорія: 16+

Тривалість: 01:31:17
Якість: 720p
Відео:
кодек:
розмір кадру: 1280 х 544
бітрейт: 5345 кбіт/с

Аудіо # 1:
мова: українська - Студія 1+1
переклад: двоголосий закадровий
ролі озвучили: Євген Пашин та Олена Яблучна
кодек: 2.0
бітрейт: 256 кбіт/с

Аудіо # 2:
мова: українська - Так Треба Продакшн
переклад: багатоголосий закадровий
ролі озвучили: Володимир Терещук, Дмитро Терещук та два жіночих голоси
кодек: 5.1
бітрейт: 448 кбіт/с

Аудіо # 3:
мова: англійська
переклад: оригінал
кодек: 5.1
бітрейт: 1536 кбіт/с

Субтитри:
мова: англійська
тип: програмні (м'які)
формат: *.srt
MediaInfo
Код:
General
Unique ID                                : 181207667628712586627251452650799963020 (0x885353CB7F47EBD8BEA116D8C4EF1B8C)
Complete name                            : Hollow Man 2 (2006) [2xUkr,Eng sub.Eng] 720p [Hurtom].mkv
Format                                   : Matroska
Format version                           : Version 4 / Version 2
File size                                : 4.82 GiB
Duration                                 : 1h 31mn
Overall bit rate                         : 7 556 Kbps
Movie name                               : Людина невидимка 2 / Hollow Man 2 (2006) 720p [Hurtom]
Encoded date                             : UTC 2014-06-12 13:40:19
Writing application                      : mkvmerge v7.0.0 ('Where We Going') 64bit built on Jun  9 2014 15:16:27
Writing library                          : libebml v1.3.0 + libmatroska v1.4.1
DURATION                                 : 01:31:17.280000000
NUMBER_OF_FRAMES                         : 171165
NUMBER_OF_BYTES                          : 306727680
_STATISTICS_WRITING_APP                  : mkvmerge v7.0.0 ('Where We Going') 64bit built on Jun  9 2014 15:16:27
_STATISTICS_WRITING_DATE_UTC             : 2014-06-12 13:40:19
_STATISTICS_TAGS                         : BPS DURATION NUMBER_OF_FRAMES NUMBER_OF_BYTES

Video
ID                                       : 1
Format                                   : AVC
Format/Info                              : Advanced Video Codec
Format profile                           : [email protected]
Format settings, CABAC                   : Yes
Format settings, ReFrames                : 5 frames
Codec ID                                 : V_MPEG4/ISO/AVC
Duration                                 : 1h 31mn
Bit rate                                 : 5 345 Kbps
Width                                    : 1 280 pixels
Height                                   : 544 pixels
Display aspect ratio                     : 2.35:1
Frame rate mode                          : Constant
Frame rate                               : 23.976 fps
Color space                              : YUV
Chroma subsampling                       : 4:2:0
Bit depth                                : 8 bits
Scan type                                : Progressive
Bits/(Pixel*Frame)                       : 0.320
Stream size                              : 3.31 GiB (69%)
Title                                    : Людина невидимка 2 / Hollow Man 2 / Невидимка 2 (2006) 720p [PublicHD-CiNEFiLE]
Writing library                          : core 132 r2309 3b1f1f7
Encoding settings                        : cabac=1 / ref=5 / deblock=1:0:0 / analyse=0x3:0x133 / me=umh / subme=8 / psy=1 / psy_rd=1.00:0.00 / mixed_ref=1 / me_range=16 / chroma_me=1 / trellis=1 / 8x8dct=1 / cqm=0 / deadzone=21,11 / fast_pskip=0 / chroma_qp_offset=-2 / threads=18 / lookahead_threads=3 / sliced_threads=0 / nr=0 / decimate=1 / interlaced=0 / bluray_compat=0 / constrained_intra=0 / bframes=3 / b_pyramid=2 / b_adapt=1 / b_bias=0 / direct=1 / weightb=1 / open_gop=0 / weightp=2 / keyint=250 / keyint_min=23 / scenecut=40 / intra_refresh=0 / rc_lookahead=40 / rc=2pass / mbtree=1 / bitrate=5345 / ratetol=1.0 / qcomp=0.60 / qpmin=0 / qpmax=69 / qpstep=4 / cplxblur=20.0 / qblur=0.5 / ip_ratio=1.40 / aq=1:1.00
Language                                 : English
Default                                  : Yes
Forced                                   : No
DURATION                                 : 01:31:17.264000000
NUMBER_OF_FRAMES                         : 131323
NUMBER_OF_BYTES                          : 3657772335
_STATISTICS_WRITING_APP                  : mkvmerge v7.0.0 ('Where We Going') 64bit built on Jun  9 2014 15:16:27
_STATISTICS_WRITING_DATE_UTC             : 2014-06-12 13:40:19
_STATISTICS_TAGS                         : BPS DURATION NUMBER_OF_FRAMES NUMBER_OF_BYTES

Audio #1
ID                                       : 2
Format                                   : AC-3
Format/Info                              : Audio Coding 3
Mode extension                           : CM (complete main)
Format settings, Endianness              : Big
Codec ID                                 : A_AC3
Duration                                 : 1h 31mn
Bit rate mode                            : Constant
Bit rate                                 : 256 Kbps
Channel(s)                               : 2 channels
Channel positions                        : Front: L R
Sampling rate                            : 48.0 KHz
Bit depth                                : 16 bits
Compression mode                         : Lossy
Stream size                              : 167 MiB (3%)
Title                                    : DVO [1+1] 2.0 256 Kbps [Hurtom-_oles]
Language                                 : Ukrainian
Default                                  : Yes
Forced                                   : Yes

Audio #2
ID                                       : 3
Format                                   : AC-3
Format/Info                              : Audio Coding 3
Mode extension                           : CM (complete main)
Format settings, Endianness              : Big
Codec ID                                 : A_AC3
Duration                                 : 1h 31mn
Bit rate mode                            : Constant
Bit rate                                 : 448 Kbps
Channel(s)                               : 6 channels
Channel positions                        : Front: L C R, Side: L R, LFE
Sampling rate                            : 48.0 KHz
Bit depth                                : 16 bits
Compression mode                         : Lossy
Delay relative to video                  : 1ms
Stream size                              : 293 MiB (6%)
Title                                    : MVO [TakTrebaProduction-Ukraina] 5.1 448 Kbps [Hurtom-_oles] [-31ms]
Language                                 : Ukrainian
Default                                  : No
Forced                                   : No

Audio #3
ID                                       : 4
Format                                   :
Format/Info                              : Digital Theater Systems
Mode                                     : 16
Format settings, Endianness              : Big
Codec ID                                 : A_DTS
Duration                                 : 1h 31mn
Bit rate mode                            : Constant
Bit rate                                 : 1 509 Kbps
Channel(s)                               : 6 channels
Channel positions                        : Front: L C R, Side: L R, LFE
Sampling rate                            : 48.0 KHz
Bit depth                                : 16 bits
Compression mode                         : Lossy
Stream size                              : 986 MiB (20%)
Title                                    : Original 5.1 1536 Kbps
Language                                 : English
Default                                  : No
Forced                                   : No

Text
ID                                       : 5
Format                                   : UTF-8
Codec ID                                 : S_TEXT/UTF8
Codec ID/Info                            : UTF-8 Plain Text
Title                                    : English full
Language                                 : English
Default                                  : No
Forced                                   : No



Джерела та подяки:
ріп відео, оригінальні звук та субтитри: 1) Yoker, (кінозал.тв), 2) CiNEFiLE (PublicHD); українські доріжки - _oles - зведення, SweetN, dvorsky, drakon87, Sando7, karvai0 - запис з ТБ; українізовані постери - WriterMix (всі - Гуртом).


ЗАЛИШАЙТЕСЬ ЯКОМОГА ДОВШЕ НА РОЗДАЧІ!

СКАЧАВ САМ - ДАЙ СКАЧАТИ ІНШИМ


Срібний реліз (на рейтинг впливає 50% завантаженого)
 Трекер:    Зареєстрований   

Завантажити / скачати фільм українською



відео для новачків



 Зареєстрований:   2014-06-12 20:54
 Розмір:   12.07 GB 
 Оцінка фільму:   4.8/10 (Голосів: 18)
   
10alexs 
VIP


З нами з: 26.02.09
Востаннє: 10.12.16
Повідомлень: 296

2014-06-13 07:42  
народ, а хтось пам'ятає. колись був серіал про людину невидимку, здається на Новому йшов, про розслідування і тд. він допомагав поліції. Хотів би переглянути хоч серію, згадати ті часи)
Anonymous 







2014-06-13 07:57  
Ти ось цей маєш на увазі http://toloka.to/t15025 ?
10alexs 
VIP


З нами з: 26.02.09
Востаннє: 10.12.16
Повідомлень: 296

2014-06-13 10:38  
igor911
дякую, воно!

Pindoss 
Новенький


З нами з: 02.12.14
Востаннє: 27.07.15
Повідомлень: 11

2015-07-23 23:47  
1-ша з Бейконом норм, а 2-га шлак ще той.
MrRyanCooper 
VIP


З нами з: 23.08.12
Востаннє: 08.12.16
Повідомлень: 282

2016-03-05 00:43  
Так - перша крутяк, а друга сміття таке, що не знайти подібного.
А за режисерку окрема дяка!!!

Nahalist 
Свій


З нами з: 12.12.13
Востаннє: 06.12.16
Повідомлень: 95

2016-03-16 21:46  
Pindoss
MrRyanCooper
Ну так це ж Пол Верховен, таке ж діло і з ЗОРЯНИЙ ДЕСАНТ, те, що він робив - крутяк, а що далі хтось знімає, то гамно-гамном!!

Ваш часовий пояс: GMT + 2 Години

Нова тема   Відповісти