Завантажити та скачати торренти українською


Дім у кінці вулиці / Будинок в кінці вулиці / House at the End of the Street (2012) AVC 2xUkr/Eng | Sub Eng

Нові коментарі

Нова тема   Відповісти
Автор Повідомлення
Anonymous 







2014-06-11 18:19  
Дім у кінці вулиці / Будинок в кінці вулиці / House at the End of the Street (2012) AVC 2xUkr/Eng | Sub Eng



Жанр: жахи, трилер
Країна: США, Канада



Кінокомпанія: Relativity Media, FilmNation Entertainment, A Bigger Boat, Zed Filmworks
Режисер: Марк Тондерай / Mark Tonderai
Актори: Дженніфер Лоуренс / Jennifer Lawrence, Макс Тіріот / Max Thieriot, Елізабет Шу / Elisabeth Shue, Джил Беллоуз / Gil Bellows, Нолан Джерард Фанк / Nolan Gerard Funk, Єва Лінк / Eva Link, Еллі МакДональд / Allie MacDonald, Джордан Гейс / Jordan Hayes, Кріста Бріджес / Krista Bridges, Джеймс Томас / James Thomas, Хаілі Сісера / Hailee Sisera, Керйґ Елдрідж / Craig Eldridge, Джонатан Гіґґінс / Jonathan Higgins, Олів'є Сурпренант / Olivier Surprenant, Лорі Алтер / Lori Alter

Сюжет:
У центрі сюжету - мати і дочка, які перебираються в маленьке містечко і незабаром виявляють, що їх нове житло стоїть якраз навпроти будинку, де недавно була жорстоко вбита подружня пара. Ситуація загострюється, коли дочка починає дружити з сином загиблих, який дивом вижив у кривавій бійні.


Рейтинг MPAA: PG-13 - дітям до 13 років перегляд не бажаний
Вікова категорія: 16+

Тривалість: 01:40:45
Якість: AVC
Відео:
кодек:
розмір кадру: 1024x424
бітрейт: 2308 кбіт/с

Аудіо # 1:
мова: українська
переклад: багатоголосий закадровий
кодек: 5.1
бітрейт: 448 кб/с
Інформація про озвучення
Режисер: Олександр Єфімов
Ролі озвучували: Анастасія Зіновенко, Андрій Федінчик, Ірина Грей, Дмитро Завадський, Олена Яблучна, Анатолій Зіновенко, Андрій Альохін, Олександр Єфімов та інші.

Фільм перекладено і озвучено на студії ААА-sound на замовлення компанії Каскад Україна
Аудіо # 2:
мова: українська
переклад: багатоголосий закадровий
кодек: 2.0
бітрейт: 192 кб/с

Аудіо # 3:
мова: англійська
переклад: оригінал
кодек: 5.1
бітрейт: 384 кб/с

Субтитри:
мова: англійська
тип: програмні (м'які)
формат: *.srt
MediaInfo та
[info]: frame I:1081 Avg QP:16.40 size: 79098
[info]: frame P:32204 Avg QP:19.38 size: 21622
[info]: frame B:111672 Avg QP:21.82 size: 8610
Код:
General
Unique ID                                : 192395532271923691159472376766241776808 (0x90BE081BF9E3A4A4BAE18B4F7BF924A8)
Complete name                            : House at the End of the Street (2012) [2xUkr,Eng sub.Eng] AVC [Hurtom].mkv
Format                                   : Matroska
Format version                           : Version 4 / Version 2
File size                                : 2.35 GiB
Duration                                 : 1h 40mn
Overall bit rate                         : 3 333 Kbps
Movie name                               : Дім у кінці вулиці / Будинок в кінці вулиці / House at the End of the Street (2012) AVC [Hurtom]
Encoded date                             : UTC 2014-06-11 15:09:25
Writing application                      : mkvmerge v7.0.0 ('Where We Going') 64bit built on Jun  9 2014 15:16:27
Writing library                          : libebml v1.3.0 + libmatroska v1.4.1
DURATION                                 : 01:31:05.321000000
NUMBER_OF_FRAMES                         : 726
NUMBER_OF_BYTES                          : 25349
_STATISTICS_WRITING_APP                  : mkvmerge v7.0.0 ('Where We Going') 64bit built on Jun  9 2014 15:16:27
_STATISTICS_WRITING_DATE_UTC             : 2014-06-11 15:09:25
_STATISTICS_TAGS                         : BPS DURATION NUMBER_OF_FRAMES NUMBER_OF_BYTES

Video
ID                                       : 1
Format                                   : AVC
Format/Info                              : Advanced Video Codec
Format profile                           : [email protected]
Format settings, CABAC                   : Yes
Format settings, ReFrames                : 11 frames
Codec ID                                 : V_MPEG4/ISO/AVC
Duration                                 : 1h 40mn
Bit rate                                 : 2 308 Kbps
Width                                    : 1 024 pixels
Height                                   : 424 pixels
Display aspect ratio                     : 2.40:1
Frame rate mode                          : Constant
Frame rate                               : 23.976 fps
Color space                              : YUV
Chroma subsampling                       : 4:2:0
Bit depth                                : 8 bits
Scan type                                : Progressive
Bits/(Pixel*Frame)                       : 0.222
Stream size                              : 1.58 GiB (67%)
Title                                    : Дім у кінці вулиці / Будинок в кінці вулиці / Дом в конце улицы / House at the End of the Street (2012) AVC
Writing library                          : core 119 r2106 07efeb4
Encoding settings                        : cabac=1 / ref=11 / deblock=1:-3:-3 / analyse=0x3:0x133 / me=umh / subme=11 / psy=1 / psy_rd=1.00:0.35 / mixed_ref=1 / me_range=48 / chroma_me=1 / trellis=2 / 8x8dct=1 / cqm=0 / deadzone=21,11 / fast_pskip=1 / chroma_qp_offset=-4 / threads=4 / sliced_threads=0 / nr=0 / decimate=0 / interlaced=0 / bluray_compat=0 / constrained_intra=0 / bframes=9 / b_pyramid=2 / b_adapt=2 / b_bias=0 / direct=3 / weightb=1 / open_gop=0 / weightp=2 / keyint=250 / keyint_min=23 / scenecut=40 / intra_refresh=0 / rc_lookahead=50 / rc=2pass / mbtree=1 / bitrate=2308 / ratetol=1.0 / qcomp=0.60 / qpmin=0 / qpmax=69 / qpstep=4 / cplxblur=20.0 / qblur=0.5 / ip_ratio=1.40 / aq=1:1.00
Language                                 : English
Default                                  : Yes
Forced                                   : No

Audio #1
ID                                       : 2
Format                                   : AC-3
Format/Info                              : Audio Coding 3
Mode extension                           : CM (complete main)
Format settings, Endianness              : Big
Codec ID                                 : A_AC3
Duration                                 : 1h 40mn
Bit rate mode                            : Constant
Bit rate                                 : 448 Kbps
Channel(s)                               : 6 channels
Channel positions                        : Front: L C R, Side: L R, LFE
Sampling rate                            : 48.0 KHz
Bit depth                                : 16 bits
Compression mode                         : Lossy
Delay relative to video                  : 25ms
Stream size                              : 323 MiB (13%)
Title                                    : MVO [AAA-sound] 5.1 448 Kbps [Hurtom-karvai0]
Language                                 : Ukrainian
Default                                  : Yes
Forced                                   : Yes

Audio #2
ID                                       : 3
Format                                   : AC-3
Format/Info                              : Audio Coding 3
Mode extension                           : CM (complete main)
Format settings, Endianness              : Big
Codec ID                                 : A_AC3
Duration                                 : 1h 40mn
Bit rate mode                            : Constant
Bit rate                                 : 192 Kbps
Channel(s)                               : 2 channels
Channel positions                        : Front: L R
Sampling rate                            : 48.0 KHz
Bit depth                                : 16 bits
Compression mode                         : Lossy
Delay relative to video                  : 22ms
Stream size                              : 138 MiB (6%)
Title                                    : MVO [Ukraina] 2.0 192 Kbps [Hurtom-karvai0]
Language                                 : Ukrainian
Default                                  : No
Forced                                   : No

Audio #3
ID                                       : 4
Format                                   : AC-3
Format/Info                              : Audio Coding 3
Mode extension                           : CM (complete main)
Format settings, Endianness              : Big
Codec ID                                 : A_AC3
Duration                                 : 1h 40mn
Bit rate mode                            : Constant
Bit rate                                 : 384 Kbps
Channel(s)                               : 6 channels
Channel positions                        : Front: L C R, Side: L R, LFE
Sampling rate                            : 48.0 KHz
Bit depth                                : 16 bits
Compression mode                         : Lossy
Stream size                              : 277 MiB (12%)
Title                                    : Original
Language                                 : English
Default                                  : No
Forced                                   : No

Text
ID                                       : 5
Format                                   : UTF-8
Codec ID                                 : S_TEXT/UTF8
Codec ID/Info                            : UTF-8 Plain Text
Title                                    : Eng full
Language                                 : English
Default                                  : No
Forced                                   : No




Джерела та подяки:
ріп відео, оригінальний звук - кінозал.тв; українські доріжки, оригінальні субтитри - karvai0 (Гуртом).


ЗАЛИШАЙТЕСЬ ЯКОМОГА ДОВШЕ НА РОЗДАЧІ!

СКАЧАВ САМ - ДАЙ СКАЧАТИ ІНШИМ


 Трекер:    Зареєстрований   

Завантажити / скачати фільм українською



відео для новачків



 Зареєстрований:   2014-06-11 18:19
 Розмір:   2.35 GB 
 Оцінка фільму:   5.3/10 (Голосів: 20)
   
eXteSy- 
VIP


З нами з: 06.04.09
Востаннє: 08.12.16
Повідомлень: 1454

2015-03-13 22:08  
Більшу частину фільму було дивитися відверто нудно: типовий молодіжний (навіть, більше підлітковий) трилер, який не цурається характерних для жанру штампів, конфлікт батьків-дітей ітепеітеде. Максимум на 5/10.
Однак останні півгодини повністю реабілітували фільм в моїх очах, в першу чергу, в сюжетному плані.
7/10

don pedro 
Попереджень: 1
Попереджень: 1 


З нами з: 29.06.11
Востаннє: 07.12.16
Повідомлень: 8761

2015-03-13 22:10  
Кінцівка просто чудова.
Ваш часовий пояс: GMT + 2 Години

Нова тема   Відповісти