Завантажити та скачати торренти українською


Матадор / The Matador (2005) AVC 2хUkr / Eng | Sub Eng

Нові коментарі

Нова тема   Відповісти
Автор Повідомлення
Anonymous 







2014-06-09 22:56  
Матадор / The Matador (2005) AVC 2хUkr / Eng | Sub Eng



Альтернативний постер



Жанр: трилер, драма, комедія, кримінальний
Країна: США, Німеччина, Ірландія



Кінокомпанія: Stratus Film Co., DEJ Productions, Equity Pictures Medienfonds GmbH & Co. KG II, Furst Films, Irish DreamTime, Yari Film Group, Syndicate
Режисер: Річард Шепард / Richard Shepard
Актори: Пірс Броснан / Pierce Brosnan, Грег Кінар / Greg Kinnear, Хоуп Девіс / Hope Davis, Адам Скот / Adam Scott, Філіп Бейкер Холл / Philip Baker Hall, Гіллермо Капетілло / Guillermo Capetillo та інші

Сюжет:
В барі готелю в Мехіко-сіті зустрілись двоє: професійний кілер та бізнесмен. Ця зустріч незнайомих людей різко міняє їхні життя, тому що кожен з них може дати один одному те що йому не вистачає. Кілеру не вистачає напарника якого ніхто не запідозрить, а бізнесмену – кілер, який вирішить його проблеми з конкурентами.


Рейтинг MPAA: R - особам до 17 років обов'язкова присутність батьків або дорослого опікуна
Вікова категорія: 16+

Тривалість: 01:37:45
Якість: AVC
Відео:
кодек:
розмір кадру: 1024x436
бітрейт: 2301 кбіт/с

Аудіо # 1:
мова: українська
переклад: двоголосий закадровий
кодек: 2.0
бітрейт: 192 кбіт/с

Аудіо # 2:
мова: українська
переклад: багатоголосий закадровий
кодек: 2.0
бітрейт: 192 кбіт/с

Аудіо # 3:
мова: англійська
переклад: оригінал
кодек: 5.1
бітрейт: 448 кбіт/с

Субтитри:
мова: англійська
тип: програмні (м'які)
формат: *.srt

Збережено оригінальні розділи, як на Blu-ray.
MediaInfo та
Код:
General
Unique ID                                : 201349595765691102472679763357148070217 (0x977A85861B10DF9F971B6C4EE9434149)
Complete name                            : The Matador (2005) [2xUkr,Eng sub.Eng] AVC [Hurtom].mkv
Format                                   : Matroska
Format version                           : Version 4 / Version 2
File size                                : 2.14 GiB
Duration                                 : 1h 37mn
Overall bit rate                         : 3 135 Kbps
Movie name                               : Матадор / The Matador (2005) AVC [Hurtom]
Encoded date                             : UTC 2014-06-09 20:11:36
Writing application                      : mkvmerge v7.0.0 ('Where We Going') 64bit built on Jun  9 2014 15:16:27
Writing library                          : libebml v1.3.0 + libmatroska v1.4.1
DURATION                                 : 01:37:45.632000000
NUMBER_OF_FRAMES                         : 183301
NUMBER_OF_BYTES                          : 140775168
_STATISTICS_WRITING_APP                  : mkvmerge v7.0.0 ('Where We Going') 64bit built on Jun  9 2014 15:16:27
_STATISTICS_WRITING_DATE_UTC             : 2014-06-09 20:11:36
_STATISTICS_TAGS                         : BPS DURATION NUMBER_OF_FRAMES NUMBER_OF_BYTES

Video
ID                                       : 1
Format                                   : AVC
Format/Info                              : Advanced Video Codec
Format profile                           : [email protected]
Format settings, CABAC                   : Yes
Format settings, ReFrames                : 9 frames
Codec ID                                 : V_MPEG4/ISO/AVC
Duration                                 : 1h 37mn
Bit rate                                 : 2 301 Kbps
Width                                    : 1 024 pixels
Height                                   : 436 pixels
Display aspect ratio                     : 2.35:1
Frame rate mode                          : Constant
Frame rate                               : 23.976 fps
Color space                              : YUV
Chroma subsampling                       : 4:2:0
Bit depth                                : 8 bits
Scan type                                : Progressive
Bits/(Pixel*Frame)                       : 0.215
Stream size                              : 1.53 GiB (71%)
Title                                    : Матадор / The Matador (2005) AVC [fanatus]
Writing library                          : core 116 r2074 2641b9e
Encoding settings                        : cabac=1 / ref=9 / deblock=1:-3:-3 / analyse=0x3:0x133 / me=umh / subme=11 / psy=1 / psy_rd=1.00:0.05 / mixed_ref=1 / me_range=48 / chroma_me=1 / trellis=2 / 8x8dct=1 / cqm=0 / deadzone=21,11 / fast_pskip=0 / chroma_qp_offset=-3 / threads=16 / sliced_threads=0 / nr=0 / decimate=1 / interlaced=0 / bluray_compat=0 / constrained_intra=0 / bframes=10 / b_pyramid=2 / b_adapt=2 / b_bias=0 / direct=3 / weightb=1 / open_gop=0 / weightp=2 / keyint=250 / keyint_min=23 / scenecut=40 / intra_refresh=0 / rc_lookahead=60 / rc=2pass / mbtree=1 / bitrate=2301 / ratetol=1.0 / qcomp=0.60 / qpmin=0 / qpmax=69 / qpstep=4 / cplxblur=20.0 / qblur=0.5 / ip_ratio=1.40 / aq=1:1.00
Language                                 : English
Default                                  : Yes
Forced                                   : No
DURATION                                 : 01:37:45.693000000
NUMBER_OF_FRAMES                         : 140636
NUMBER_OF_BYTES                          : 1687063233
_STATISTICS_WRITING_APP                  : mkvmerge v7.0.0 ('Where We Going') 64bit built on Jun  9 2014 15:16:27
_STATISTICS_WRITING_DATE_UTC             : 2014-06-09 20:11:36
_STATISTICS_TAGS                         : BPS DURATION NUMBER_OF_FRAMES NUMBER_OF_BYTES

Audio #1
ID                                       : 2
Format                                   : AC-3
Format/Info                              : Audio Coding 3
Mode extension                           : CM (complete main)
Format settings, Endianness              : Big
Codec ID                                 : A_AC3
Duration                                 : 1h 37mn
Bit rate mode                            : Constant
Bit rate                                 : 192 Kbps
Channel(s)                               : 2 channels
Channel positions                        : Front: L R
Sampling rate                            : 48.0 KHz
Bit depth                                : 16 bits
Compression mode                         : Lossy
Delay relative to video                  : 15ms
Stream size                              : 134 MiB (6%)
Title                                    : DVO [2+2] 2.0 192 Kbps [Hurtom-patriot2305] [-17ms]
Language                                 : Ukrainian
Default                                  : Yes
Forced                                   : Yes

Audio #2
ID                                       : 3
Format                                   : AC-3
Format/Info                              : Audio Coding 3
Mode extension                           : CM (complete main)
Format settings, Endianness              : Big
Codec ID                                 : A_AC3
Duration                                 : 1h 37mn
Bit rate mode                            : Constant
Bit rate                                 : 192 Kbps
Channel(s)                               : 2 channels
Channel positions                        : Front: L R
Sampling rate                            : 48.0 KHz
Bit depth                                : 16 bits
Compression mode                         : Lossy
Delay relative to video                  : 4ms
Stream size                              : 134 MiB (6%)
Title                                    : MVO [TVI] 2.0 192 Kbps [Hurtom-patriot2305] [-28ms]
Language                                 : Ukrainian
Default                                  : No
Forced                                   : No

Audio #3
ID                                       : 4
Format                                   : AC-3
Format/Info                              : Audio Coding 3
Mode extension                           : CM (complete main)
Format settings, Endianness              : Big
Codec ID                                 : A_AC3
Duration                                 : 1h 37mn
Bit rate mode                            : Constant
Bit rate                                 : 448 Kbps
Channel(s)                               : 6 channels
Channel positions                        : Front: L C R, Side: L R, LFE
Sampling rate                            : 48.0 KHz
Bit depth                                : 16 bits
Compression mode                         : Lossy
Stream size                              : 313 MiB (14%)
Title                                    : Original
Language                                 : English
Default                                  : No
Forced                                   : No

Text
ID                                       : 5
Format                                   : UTF-8
Codec ID                                 : S_TEXT/UTF8
Codec ID/Info                            : UTF-8 Plain Text
Title                                    : Eng full
Language                                 : English
Default                                  : No
Forced                                   : No

Menu
00:00:00.000                             : en:Chapter 01
00:02:43.663                             : en:Chapter 02
00:04:33.022                             : en:Chapter 03
00:06:02.695                             : en:Chapter 04
00:09:31.070                             : en:Chapter 05
00:12:48.434                             : en:Chapter 06
00:15:26.467                             : en:Chapter 07
00:17:28.213                             : en:Chapter 08
00:24:09.239                             : en:Chapter 09
00:27:45.163                             : en:Chapter 10
00:33:33.136                             : en:Chapter 11
00:39:20.775                             : en:Chapter 12
00:45:35.816                             : en:Chapter 13
00:51:07.939                             : en:Chapter 14
00:52:40.157                             : en:Chapter 15
00:55:43.381                             : en:Chapter 16
01:02:24.282                             : en:Chapter 17
01:14:08.444                             : en:Chapter 18
01:19:36.897                             : en:Chapter 19
01:24:13.715                             : en:Chapter 20
01:27:19.067                             : en:Chapter 21
01:33:33.816                             : en:Chapter 22
01:37:45.651                             : en:Chapter 23


---[NoImage] raw [info]: 1024x436p 1:1 @ 24000/1001 fps (cfr)
---[NoImage] [info]: using SAR=1/1
---[NoImage] [info]: using cpu capabilities: MMX2 SSE2Fast FastShuffle SSEMisalign LZCNT
---[NoImage] [info]: profile High, level 3.1
---[NoImage]
---[NoImage] [info]: frame I:1114 Avg QP:15.14 size: 94914
---[NoImage] [info]: frame P:29105 Avg QP:18.02 size: 27175
---[NoImage] [info]: frame B:110417 Avg QP:21.50 size: 7158
---[NoImage] [info]: consecutive B-frames: 1.8% 1.5% 7.0% 18.6% 16.9% 42.1% 5.5% 4.0% 1.2% 0.6% 0.6%
---[NoImage] [info]: mb I I16..4: 8.4% 62.2% 29.4%
---[NoImage] [info]: mb P I16..4: 0.6% 7.6% 2.2% P16..4: 28.2% 35.3% 13.2% 5.5% 0.7% skip: 6.7%
---[NoImage] [info]: mb B I16..4: 0.1% 0.9% 0.3% B16..8: 36.3% 19.6% 3.4% direct: 4.2% skip:35.2% L0:44.7% L1:42.6% BI:12.7%
---[NoImage] [info]: 8x8 transform intra:70.6% inter:56.2%
---[NoImage] [info]: direct mvs spatial:97.6% temporal:2.4%
---[NoImage] [info]: coded y,uvDC,uvAC intra: 86.9% 87.0% 67.2% inter: 24.5% 19.2% 4.8%
---[NoImage] [info]: i16 v,h,dc,p: 45% 13% 11% 31%
---[NoImage] [info]: i8 v,h,dc,ddl,ddr,vr,hd,vl,hu: 14% 8% 8% 9% 13% 13% 12% 12% 12%
---[NoImage] [info]: i4 v,h,dc,ddl,ddr,vr,hd,vl,hu: 35% 7% 7% 6% 10% 10% 9% 8% 8%
---[NoImage] [info]: i8c dc,h,v,p: 39% 23% 22% 16%
---[NoImage] [info]: Weighted P-Frames: Y:2.5% UV:1.0%
---[NoImage] [info]: ref P L0: 42.3% 11.6% 18.8% 7.0% 6.5% 4.4% 4.4% 2.3% 2.6% 0.2% 0.0%
---[NoImage] [info]: ref B L0: 70.1% 12.4% 6.9% 3.8% 2.8% 2.4% 1.3% 0.4%
---[NoImage] [info]: ref B L1: 91.5% 8.5%
---[NoImage] [info]: kb/s:2300.92
---[NoImage] encoded 140636 frames, 9.21 fps, 2300.92 kb/s[/tpb]




Джерела та подяки:
ріп відео, оригінальні звук та субтитри - fanatus; українські доріжки - patriot2305 - зведення, Sando7, bodia87- запис з ТБ; (троє останніх - Гуртом).


ЗАЛИШАЙТЕСЬ ЯКОМОГА ДОВШЕ НА РОЗДАЧІ!

СКАЧАВ САМ - ДАЙ СКАЧАТИ ІНШИМ


 Трекер:    Зареєстрований   

Завантажити / скачати фільм українською



відео для новачків



 Зареєстрований:   2014-06-15 18:27
 Розмір:   2.14 GB 
 Оцінка фільму:   3.3/10 (Голосів: 15)
   
Інші релізи
   Матадор / The Matador (2005) 720p 2хUkr / Eng | Sub Eng igor911  3 / 0   5.48 GB   2014-06-16 16:32 
   Матадор / The Matador (2005) 2хUkr patriot2305  2 / 0   1.46 GB   2014-06-09 12:26 
   Матадор / The Matador (2005) UKR/ENG bodia87  2 / 0   2.18 GB   2012-03-03 14:02 
bot 
робот


З нами з: 30.09.07
Востаннє: 26.05.05
Повідомлень: 16004

2014-06-09 22:57  
Тему перенесено з Фільми до форуму Анонси релізів


igor911

Anonymous 







2014-06-10 07:35  
Озвучка від "Кіно" ідентична 2+2.
bot 
робот


З нами з: 30.09.07
Востаннє: 26.05.05
Повідомлень: 16004

2014-06-15 18:27  
Тему перенесено з Анонси релізів до форуму Фільми


igor911

Ваш часовий пояс: GMT + 2 Години

Нова тема   Відповісти