Завантажити та скачати торренти українською


Дідочок задумав женитися (2013) 720р

Нові коментарі

Нова тема   Відповісти
Автор Повідомлення
nikolay72 
Свій


З нами з: 19.11.09
Востаннє: 05.12.16
Повідомлень: 132

2014-06-09 22:06  
Дідочок задумав женитися (2013) 720р

Дідочок задумав женитися (2013) 720р

Жанр: анімація, казка, музичний
Країна: Україна

Кінокомпанія: Новатор-фільм
Режисер: Юрій Борисенко
Актори: Ілля Фетисов, Юрій Коваленко, Олена Пахольчук, Ганна Левченко

Сюжет:
Сценарій анімаційного фільму оснований на українській народній пісні, автор сценарію Юрій Борисенко.
Жив собі дід, і не було в нього жінки. Сумував дід, що ніхто його не приласкає і вирішив женитися. Старої не хотів, а намагався звабити молоду. В цьому йому допомагали тварини його господарства. Вони кожного разу наряджали діда в чудернацький костюм, де він був схожий: то на півня, то на цапа … в залежності від того, хто з тварин його наряджав. Молоду сусідку йому привабити не вдалося, а стара пожаліла невдаху і стали вони жити разом.
Мультфільм створено у пластиліновій техніці.


Тривалість: 00:05:44
Якість:
Відео:
кодек:
розмір кадру: 1280 х 720
бітрейт: 1868 кб/с

Аудіо:
мова: українська
переклад: оригінал
кодек: MP3
бітрейт: 192 кб/с
Звіт MediaInfo
General
Complete name : E:\Hurtom\Дідочок задумав женитися\didochok_zadumav_webrip.avi
Format : AVI
Format/Info : Audio Video Interleave
File size : 86.2 MiB
Duration : 5mn 44s
Overall bit rate : 2 101 Kbps
Writing application : Lavf55.0.100

Video
ID : 0
Format : AVC
Format/Info : Advanced Video Codec
Format profile : [email protected]
Format settings, CABAC : Yes
Format settings, ReFrames : 4 frames
Codec ID : H264
Duration : 5mn 44s
Bit rate : 1 868 Kbps
Width : 1 280 pixels
Height : 720 pixels
Display aspect ratio : 16:9
Frame rate mode : Variable
Frame rate : 25.000 fps
Color space : YUV
Chroma subsampling : 4:2:0
Bit depth : 8 bits
Scan type : Progressive
Bits/(Pixel*Frame) : 0.081
Stream size : 77.8 MiB (90%)
Writing library : core 130 r2274 c832fe9
Encoding settings : cabac=1 / ref=3 / deblock=1:0:0 / analyse=0x3:0x113 / me=hex / subme=7 / psy=1 / psy_rd=1.00:0.00 / mixed_ref=1 / me_range=16 / chroma_me=1 / trellis=1 / 8x8dct=1 / cqm=0 / deadzone=21,11 / fast_pskip=1 / chroma_qp_offset=-2 / threads=3 / lookahead_threads=1 / sliced_threads=0 / nr=0 / decimate=1 / interlaced=0 / bluray_compat=0 / constrained_intra=0 / bframes=3 / b_pyramid=2 / b_adapt=2 / b_bias=0 / direct=1 / weightb=1 / open_gop=0 / weightp=2 / keyint=250 / keyint_min=25 / scenecut=40 / intra_refresh=0 / rc_lookahead=40 / rc=abr / mbtree=1 / bitrate=1868 / ratetol=1.0 / qcomp=0.60 / qpmin=0 / qpmax=69 / qpstep=4 / ip_ratio=1.41 / aq=1:1.00

Audio
ID : 1
Format : MPEG Audio
Format version : Version 1
Format profile : Layer 3
Mode : Joint stereo
Mode extension : MS Stereo
Codec ID : 55
Codec ID/Hint : MP3
Duration : 5mn 44s
Bit rate mode : Constant
Bit rate : 192 Kbps
Channel(s) : 2 channels
Sampling rate : 44.1 KHz
Compression mode : Lossy
Stream size : 7.88 MiB (9%)
Alignment : Aligned on interleaves
Interleave, duration : 26 ms (0.65 video frame)
Writing library : LAME3.99.5
Скріншоти
Джерело: ex.ua автор VneTolpy
Особиста оцінка: 8 - мені сподобалося


Золотий реліз (завантажене не впливає на рейтинг)
 Трекер:    Зареєстрований   

Завантажити / скачати український мультфільм



відео для новачків



 Зареєстрований:   2014-06-09 22:06
 Розмір:   86 MB 
 Оцінка мультфільму:   9.8/10 (Голосів: 28)
   
nikolay72 
Свій


З нами з: 19.11.09
Востаннє: 05.12.16
Повідомлень: 132

2014-06-09 22:14  
Konfucius 
Управління
Управління


З нами з: 30.09.07
Востаннє: 07.12.16
Повідомлень: 4742

2014-06-11 20:16  
Бракує mediainfo.
Ваш часовий пояс: GMT + 2 Години

Нова тема   Відповісти