Завантажити та скачати торренти українською


Пляж / The Beach (2000) AVC Ukr/Eng | sub Eng

Нові коментарі

Нова тема   Відповісти
Автор Повідомлення
DеLight 
Відео Гуртом - фільмокрай
Відео Гуртом - фільмокрай


З нами з: 24.08.11
Востаннє: 17.11.16
Повідомлень: 663

2014-06-09 18:19  
Пляж / The Beach (2000) AVC Ukr/Eng | sub Eng


Пляж / The Beach (2000) AVC Ukr/Eng | sub Eng

«It really was some kind of paradise»
+++



Жанр: трилер, пригодницький, драма, романтичний
Країна: США, Велика Британія





Кінокомпанія: Figment Films
Режисер: Денні Бойл / Danny Boyle
Актори: Леонардо ДіКапріо / Leonardo DiCaprio, Віржіні Ледуаєн / Virginie Ledoyen, Тільда ​​Свінтон / Tilda Swinton, Ґійом Кане / Guillaume Canet, Роберт Карлайл / Robert Carlyle, Патерсон Джозеф / Paterson Joseph, Пітер Янґблад Гіллз / Peter Youngblood Hills та інші

Сюжет:
Молодий американець Річард у пошуках пригод їде до Тайланду, де в дешевому готелі знайомиться з дивним чоловіком. Цей чоловік передає йому карту таємного острову, де "трава" росте як бур’ян, а на пляжі живе комуна. Це і є рай на Землі. Річард розповідає про карту парочці французів, і вони утрьох вирушають на пошуки острова...
Фільм знятий за однойменним романом-бестселером Алекса Ґарленда «Пляж» (The Beach, 1996).


Тривалість: 01:59:00
Якість: AVC

Відео:
кодек:
розмір кадру: 960 x 536
бітрейт: 2 Mб/с

Аудіо #1:
мова: українська
переклад: двоголосий закадровий
кодек: 2.0
бітрейт: 192 кб/с

Аудіо #2:
мова: англійська
переклад: оригінал
кодек: 5.1
бітрейт: 384 кб/с

Субтитри:
мова: англійська
тип: програмні (м'які)
формат: *.srt


Trailer




MediaInfo
Код:

General
Unique ID                      : 235339447743473635836378624958513499626 (0xB10CBA9C7F81C4C8BE36A3AA35BB4DEA)
Complete name                  : D:\Torrents\The Beach (2000) AVC [ukr, eng] [Hurtom].mkv
Format                         : Matroska
Format version                 : Version 4 / Version 2
File size                      : 2.14 GiB
Duration                       : 1h 59mn
Overall bit rate               : 2 572 Kbps
Movie name                     : Hurtom
Encoded date                   : UTC 2014-06-08 09:33:57
Writing application            : mkvmerge v6.8.0 ('Theme for Great Cities') 64bit built on Mar  2 2014 21:34:26
Writing library                : libebml v1.3.0 + libmatroska v1.4.1
Attachment                     : Yes

Video
ID                             : 1
Format                         : AVC
Format/Info                    : Advanced Video Codec
Format profile                 : [email protected]
Format settings, CABAC         : Yes
Format settings, ReFrames      : 10 frames
Codec ID                       : V_MPEG4/ISO/AVC
Duration                       : 1h 59mn
Bit rate                       : 2 000 Kbps
Width                          : 960 pixels
Height                         : 536 pixels
Display aspect ratio           : 16:9
Frame rate mode                : Constant
Frame rate                     : 23.976 fps
Color space                    : YUV
Chroma subsampling             : 4:2:0
Bit depth                      : 8 bits
Scan type                      : Progressive
Bits/(Pixel*Frame)             : 0.162
Stream size                    : 1.62 GiB (76%)
Title                          : The Beach (2000) [rip by smithland]
Writing library                : core 125 r2208 d9d2288
Encoding settings              : cabac=1 / ref=10 / deblock=1:-2:-1 / analyse=0x3:0x133 / me=umh / subme=11 / psy=1 / psy_rd=1.10:0.25 / mixed_ref=1 / me_range=26 / chroma_me=1 / trellis=2 / 8x8dct=1 / cqm=0 / deadzone=21,11 / fast_pskip=0 / chroma_qp_offset=-4 / threads=12 / lookahead_threads=2 / sliced_threads=0 / nr=0 / decimate=1 / interlaced=0 / bluray_compat=0 / constrained_intra=0 / bframes=6 / b_pyramid=2 / b_adapt=1 / b_bias=0 / direct=1 / weightb=1 / open_gop=1 / weightp=2 / keyint=250 / keyint_min=23 / scenecut=40 / intra_refresh=0 / rc_lookahead=50 / rc=abr / mbtree=1 / bitrate=2000 / ratetol=1.0 / qcomp=0.60 / qpmin=0 / qpmax=69 / qpstep=4 / ip_ratio=1.45 / aq=1:1.00
Language                       : English
Default                        : Yes
Forced                         : No
Color primaries                : Generic film

Audio #1
ID                             : 2
Format                         : AC-3
Format/Info                    : Audio Coding 3
Mode extension                 : CM (complete main)
Format settings, Endianness    : Big
Codec ID                       : A_AC3
Duration                       : 1h 59mn
Bit rate mode                  : Constant
Bit rate                       : 192 Kbps
Channel(s)                     : 2 channels
Channel positions              : Front: L R
Sampling rate                  : 48.0 KHz
Bit depth                      : 16 bits
Compression mode               : Lossy
Stream size                    : 163 MiB (7%)
Title                          : DVO [Novy Channel]
Language                       : Ukrainian
Default                        : Yes
Forced                         : No

Audio #2
ID                             : 3
Format                         : AC-3
Format/Info                    : Audio Coding 3
Mode extension                 : CM (complete main)
Format settings, Endianness    : Big
Codec ID                       : A_AC3
Duration                       : 1h 59mn
Bit rate mode                  : Constant
Bit rate                       : 384 Kbps
Channel(s)                     : 6 channels
Channel positions              : Front: L C R, Side: L R, LFE
Sampling rate                  : 48.0 KHz
Bit depth                      : 16 bits
Compression mode               : Lossy
Stream size                    : 327 MiB (15%)
Title                          : Original
Language                       : English
Default                        : No
Forced                         : No

Text
ID                             : 4
Format                         : UTF-8
Codec ID                       : S_TEXT/UTF8
Codec ID/Info                  : UTF-8 Plain Text
Title                          : full
Language                       : English
Default                        : No
Forced                         : No

Скріншоти





































Джерело: | За запис з ТБ подяка dvorsky


Срібний реліз (на рейтинг впливає 50% завантаженого)
 Трекер:    Зареєстрований   

Завантажити / скачати фільм українською



відео для новачків



 Зареєстрований:   2014-06-09 18:19
 Розмір:   2.14 GB 
 Оцінка фільму:   9.7/10 (Голосів: 26)
   
Інші релізи
   На пляжі / On the Beach (2000) Ukr/Eng Lan  4 / 1   3.26 GB   2010-09-21 20:36 
   Пляж / The Beach (2000) Ukr/Eng SweetN  4 / 0   2.14 GB   2009-03-28 22:42 
10alexs 
VIP


З нами з: 26.02.09
Востаннє: 09.12.16
Повідомлень: 296

2014-06-10 05:43  
Як я скучив за якісним кіно! ґречно дякую 9/10))
hellforces 
VIP


З нами з: 25.06.08
Востаннє: 11.11.16
Повідомлень: 1556

2014-06-10 13:11  
а інша якість фільму буде?
DеLight 
Відео Гуртом - фільмокрай
Відео Гуртом - фільмокрай


З нами з: 24.08.11
Востаннє: 17.11.16
Повідомлень: 663

2014-06-10 16:49  
hellforces
Ні. BD виходить через ~7 міс. Тоді буду щось змінювати, оновлювати.

hellforces 
VIP


З нами з: 25.06.08
Востаннє: 11.11.16
Повідомлень: 1556

2014-06-10 17:31  
DеLight
зрозуміло. буду чекати

Magda-Lena 
Частий відвідувач


З нами з: 19.01.11
Востаннє: 08.12.16
Повідомлень: 33

2015-03-11 16:57  
жахливий звук - ефект "пиляння" на піаніно - а в фільмі такий класний музичний супровід. шкода.
Ваш часовий пояс: GMT + 2 Години

Нова тема   Відповісти