Завантажити та скачати торренти українською


Темна сторона пристрасті / In the Cut (2003) 720p Ukr/Eng | Sub Eng

Нові коментарі

Нова тема   Відповісти
Автор Повідомлення
Anonymous 







2014-06-06 19:31  
Темна сторона пристрасті / In the Cut (2003) 720p Ukr/Eng | Sub Eng



Жанр: трилер, детектив
Країна: Австралія, США, Велика Британія



Кінокомпанія: Pathe Productions, Pathé Pictures International, Red Turtle
Режисер: Джейн Кемпіон / Jane Campion
Актори: Меґ Раян / Meg Ryan, Марк Руффало / Mark Ruffalo, Дженніфер Джейсон Лі / Jennifer Jason Leigh, Нік Дамічі / Nick Damici, Шарріефф П’ю / Sharrieff Pugh, Майкл Нуччіо / Michael Nuccio, Еллісон Неґа / Allison Nega та інші

Сюжет:
Життя звичайної нью-йоркської жінки Френі Ейвері неповоротно змінюється після вбивства, яке було скоєне неподалік її дому.
Детектив, який розслідує цей злочин, підозрює Френі, але це не заважає їм завести один з одним любовну інтригу, повну темної пристрасті...

"Темна сторона пристрасті" (In The Cut) - психологічний трилер з елементами еротики, що дозволяє проникнути в таємниці людської особистості.
Фільм знятий за новелою Сюзанни Мур.


Рейтинг MPAA: R - особам до 17 років обов'язкова присутність батьків або дорослого опікуна
Вікова категорія: 18+

Тривалість: 01:59:02
Якість: 720p
Відео:
кодек:
розмір кадру: 1280x688
бітрейт: 5713 кбіт/с

Аудіо # 1:
мова: українська - Так Треба Продакшн
переклад: багатоголосий закадровий
кодек: 2.0
бітрейт: 192 кбіт/с

Аудіо # 2:
мова: англійська
переклад: оригінал
кодек: 5.1
бітрейт: 1536 кбіт/с

Субтитри :
мова: англійська
тип: програмні (м'які)
формат: *.srt

Збережено оригінальні розділи, як на Blu-ray.
MediaInfo
Код:
General
Unique ID                                : 176905778134128261817211099028573775241 (0x8516D0447186398FB920097A51D5E589)
Complete name                            : In The Cut (2003) [Ukr,Eng sub.Eng] 720p [Hurtom].mkv
Format                                   : Matroska
Format version                           : Version 4 / Version 2
File size                                : 6.17 GiB
Duration                                 : 1h 59mn
Overall bit rate                         : 7 416 Kbps
Movie name                               : Темна сторона пристрасті / In the Cut (2003) 720p [Hurtom & HDTracker]
Encoded date                             : UTC 2014-06-06 16:50:41
Writing application                      : mkvmerge v6.9.1 ('Blue Panther') 64bit built on Apr 18 2014 18:23:38
Writing library                          : libebml v1.3.0 + libmatroska v1.4.1

Video
ID                                       : 1
Format                                   : AVC
Format/Info                              : Advanced Video Codec
Format profile                           : [email protected]
Format settings, CABAC                   : Yes
Format settings, ReFrames                : 8 frames
Codec ID                                 : V_MPEG4/ISO/AVC
Duration                                 : 1h 59mn
Bit rate                                 : 5 713 Kbps
Width                                    : 1 280 pixels
Height                                   : 688 pixels
Display aspect ratio                     : 1.85:1
Frame rate mode                          : Constant
Frame rate                               : 23.976 fps
Color space                              : YUV
Chroma subsampling                       : 4:2:0
Bit depth                                : 8 bits
Scan type                                : Progressive
Bits/(Pixel*Frame)                       : 0.271
Stream size                              : 4.63 GiB (75%)
Title                                    : Темна сторона пристрасті / In the Cut / Темная сторона страсти (2003) 720p [HDTracker-MySilu]
Writing library                          : core 129 r2245 bc13772
Encoding settings                        : cabac=1 / ref=8 / deblock=1:-2:-2 / analyse=0x3:0x133 / me=umh / subme=9 / psy=1 / psy_rd=1.20:0.20 / mixed_ref=1 / me_range=16 / chroma_me=1 / trellis=2 / 8x8dct=1 / cqm=0 / deadzone=21,11 / fast_pskip=1 / chroma_qp_offset=-3 / threads=12 / lookahead_threads=2 / sliced_threads=0 / nr=0 / decimate=0 / interlaced=0 / bluray_compat=0 / constrained_intra=0 / bframes=3 / b_pyramid=2 / b_adapt=2 / b_bias=0 / direct=3 / weightb=1 / open_gop=0 / weightp=2 / keyint=240 / keyint_min=1 / scenecut=40 / intra_refresh=0 / rc_lookahead=60 / rc=2pass / mbtree=0 / bitrate=5713 / ratetol=1.0 / qcomp=0.60 / qpmin=10 / qpmax=51 / qpstep=4 / cplxblur=20.0 / qblur=0.5 / vbv_maxrate=38000 / vbv_bufsize=38000 / nal_hrd=none / ip_ratio=1.40 / pb_ratio=1.30 / aq=1:1.00
Language                                 : English
Default                                  : Yes
Forced                                   : No

Audio #1
ID                                       : 2
Format                                   : AC-3
Format/Info                              : Audio Coding 3
Mode extension                           : CM (complete main)
Format settings, Endianness              : Big
Codec ID                                 : A_AC3
Duration                                 : 1h 59mn
Bit rate mode                            : Constant
Bit rate                                 : 192 Kbps
Channel(s)                               : 2 channels
Channel positions                        : Front: L R
Sampling rate                            : 48.0 KHz
Bit depth                                : 16 bits
Compression mode                         : Lossy
Delay relative to video                  : 23ms
Stream size                              : 163 MiB (3%)
Title                                    : MVO [TakTrebaProduction-Inter] 2.0 192 kbps [Hurtom-DеLight]
Language                                 : Ukrainian
Default                                  : Yes
Forced                                   : Yes

Audio #2
ID                                       : 3
Format                                   :
Format/Info                              : Digital Theater Systems
Mode                                     : 16
Format settings, Endianness              : Big
Codec ID                                 : A_DTS
Duration                                 : 1h 59mn
Bit rate mode                            : Constant
Bit rate                                 : 1 509 Kbps
Channel(s)                               : 6 channels
Channel positions                        : Front: L C R, Side: L R, LFE
Sampling rate                            : 48.0 KHz
Bit depth                                : 16 bits
Compression mode                         : Lossy
Stream size                              : 1.25 GiB (20%)
Title                                    : Original 5.1 1536 Kbps
Language                                 : English
Default                                  : No
Forced                                   : No

Text
ID                                       : 4
Format                                   : UTF-8
Codec ID                                 : S_TEXT/UTF8
Codec ID/Info                            : UTF-8 Plain Text
Title                                    : Eng full
Language                                 : English
Default                                  : No
Forced                                   : No

Menu
00:00:00.000                             : :Chapter 01
00:10:27.710                             : :Chapter 02
00:17:05.733                             : :Chapter 03
00:22:42.361                             : :Chapter 04
00:28:02.514                             : :Chapter 05
00:34:56.011                             : :Chapter 06
00:38:48.868                             : :Chapter 07
00:45:04.452                             : :Chapter 08
00:47:58.583                             : :Chapter 09
00:54:02.573                             : :Chapter 10
01:02:45.804                             : :Chapter 11
01:05:56.411                             : :Chapter 12
01:10:56.252                             : :Chapter 13
01:17:37.152                             : :Chapter 14
01:22:15.680                             : :Chapter 15
01:26:38.985                             : :Chapter 16
01:33:16.966                             : :Chapter 17
01:36:41.337                             : :Chapter 18
01:46:19.832                             : :Chapter 19
01:54:18.185                             : :Chapter 20




Джерела та подяки:
ріп відео, оригінальний звук - MySilu (HDTracker); українська доріжка - DеLight - зведення, dvorsky - запис з ТБ (обоє - Гуртом).


ЗАЛИШАЙТЕСЬ ЯКОМОГА ДОВШЕ НА РОЗДАЧІ!

СКАЧАВ САМ - ДАЙ СКАЧАТИ ІНШИМ


Срібний реліз (на рейтинг впливає 50% завантаженого)
 Трекер:    Зареєстрований   

Завантажити / скачати фільм українською



відео для новачків



 Зареєстрований:   2014-06-06 19:31
 Розмір:   6.17 GB 
 Оцінка фільму:   5.4/10 (Голосів: 21)
   
Інші релізи
natashelka 
VIP


З нами з: 23.05.10
Востаннє: 02.12.16
Повідомлень: 441

2016-02-18 22:11  
що за фіґня з оцінкою? 3,7 з 10 на 15-ти оцінках?
Anonymous 







2016-02-18 22:26  
natashelka, оцінки у всіх моїх релізах, як і в деяких інших релізерів замінусовані неадекватом сімбою/велкамбеком/вебгірником.
waldi-hurtom 
VIP


З нами з: 07.10.12
Востаннє: 02.12.16
Повідомлень: 611

2016-05-22 23:04  
Якась фігня - тільки-но поставив оцінку 7, а результат 3.7 не змінився, як і кількість голосів - 15. Мабуть, модер сюди не заглядає. Замість нього неадеквати рулять!
Anonymous 







2016-05-23 07:39  
igor911 написано:
3.9/10 (Голосів: 16)

waldi-hurtom, відписав у приват.

sergiyko.5 
Попереджень: 1
Попереджень: 1 


З нами з: 25.02.16
Востаннє: 03.12.16
Повідомлень: 481

2016-05-23 09:21  
waldi-hurtom,

Поставив за ради експерименту 10, стало 4.3/10 (Голосів: 17), система працює

Ваш часовий пояс: GMT + 2 Години

Нова тема   Відповісти