Завантажити та скачати торренти українською


Темна сторона пристрасті / In the Cut (2003) AVC Ukr/Eng

Нові коментарі

Нова тема   Відповісти
Автор Повідомлення
Anonymous 







2014-06-05 10:53  
Темна сторона пристрасті / In the Cut (2003) AVC Ukr/Eng



Жанр: трилер, детектив
Країна: Австралія, США, Велика Британія



Кінокомпанія: Pathe Productions, Pathé Pictures International, Red Turtle
Режисер: Джейн Кемпіон / Jane Campion
Актори: Меґ Раян / Meg Ryan, Марк Руффало / Mark Ruffalo, Дженніфер Джейсон Лі / Jennifer Jason Leigh, Нік Дамічі / Nick Damici, Шарріефф П’ю / Sharrieff Pugh, Майкл Нуччіо / Michael Nuccio, Еллісон Неґа / Allison Nega та інші

Сюжет:
Життя звичайної нью-йоркської жінки Френі Ейвері неповоротно змінюється після вбивства, яке було скоєне неподалік її дому.
Детектив, який розслідує цей злочин, підозрює Френі, але це не заважає їм завести один з одним любовну інтригу, повну темної пристрасті...

"Темна сторона пристрасті" (In The Cut) - психологічний трилер з елементами еротики, що дозволяє проникнути в таємниці людської особистості.
Фільм знятий за новелою Сюзанни Мур.


Рейтинг MPAA: R - особам до 17 років обов'язкова присутність батьків або дорослого опікуна
Вікова категорія: 18+

Тривалість: 01:59:02
Якість: AVC
Відео:
кодек:
розмір кадру: 1024x552
бітрейт: 2869 кбіт/с

Аудіо # 1:
мова: українська - Так Треба Продакшн
переклад: багатоголосий закадровий
кодек: 2.0
бітрейт: 192 кбіт/с

Аудіо # 2:
мова: англійська
переклад: оригінал
кодек: 5.1
бітрейт: 384 кбіт/с

Збережено оригінальні розділи, як на Blu-ray.
MediaInfo та
[info]: frame I:1075 Avg QP:16.30 size: 64859
[info]: frame P:39042 Avg QP:18.70 size: 26058
[info]: frame B:131120 Avg QP:20.29 size: 11245
Код:
General
Unique ID                                : 224114484275030472263180207117829180343 (0xA89AE12F03719831BCC19D69C0F08BB7)
Complete name                            : In The Cut (2003) [Ukr,Eng] AVC [Hurtom].mkv
Format                                   : Matroska
Format version                           : Version 4 / Version 2
File size                                : 2.87 GiB
Duration                                 : 1h 59mn
Overall bit rate                         : 3 447 Kbps
Movie name                               : Темна сторона пристрасті / In the Cut (2003) AVC [Hurtom]
Encoded date                             : UTC 2014-06-05 08:29:51
Writing application                      : mkvmerge v6.9.1 ('Blue Panther') 64bit built on Apr 18 2014 18:23:38
Writing library                          : libebml v1.3.0 + libmatroska v1.4.1

Video
ID                                       : 1
Format                                   : AVC
Format/Info                              : Advanced Video Codec
Format profile                           : [email protected]
Format settings, CABAC                   : Yes
Format settings, ReFrames                : 9 frames
Codec ID                                 : V_MPEG4/ISO/AVC
Duration                                 : 1h 59mn
Bit rate                                 : 2 869 Kbps
Width                                    : 1 024 pixels
Height                                   : 552 pixels
Display aspect ratio                     : 1.85:1
Frame rate mode                          : Constant
Frame rate                               : 23.976 fps
Color space                              : YUV
Chroma subsampling                       : 4:2:0
Bit depth                                : 8 bits
Scan type                                : Progressive
Bits/(Pixel*Frame)                       : 0.212
Stream size                              : 2.33 GiB (81%)
Title                                    : Темна сторона пристрасті / In the Cut / Темная сторона страсти (2003) AVC [0ptimus]
Writing library                          : core 133 r2334 a3ac64b
Encoding settings                        : cabac=1 / ref=9 / deblock=1:-3:-3 / analyse=0x3:0x113 / me=umh / subme=11 / psy=1 / psy_rd=1.00:0.20 / mixed_ref=1 / me_range=32 / chroma_me=1 / trellis=2 / 8x8dct=1 / cqm=0 / deadzone=21,11 / fast_pskip=0 / chroma_qp_offset=-3 / threads=4 / lookahead_threads=1 / sliced_threads=0 / nr=0 / decimate=0 / interlaced=0 / bluray_compat=0 / constrained_intra=0 / bframes=8 / b_pyramid=2 / b_adapt=2 / b_bias=0 / direct=3 / weightb=1 / open_gop=0 / weightp=2 / keyint=240 / keyint_min=23 / scenecut=40 / intra_refresh=0 / rc_lookahead=40 / rc=2pass / mbtree=0 / bitrate=2869 / ratetol=1.0 / qcomp=0.60 / qpmin=0 / qpmax=69 / qpstep=4 / cplxblur=20.0 / qblur=0.5 / vbv_maxrate=50000 / vbv_bufsize=50000 / nal_hrd=none / ip_ratio=1.40 / pb_ratio=1.30 / aq=1:1.00
Language                                 : English
Default                                  : Yes
Forced                                   : Yes

Audio #1
ID                                       : 2
Format                                   : AC-3
Format/Info                              : Audio Coding 3
Mode extension                           : CM (complete main)
Format settings, Endianness              : Big
Codec ID                                 : A_AC3
Duration                                 : 1h 59mn
Bit rate mode                            : Constant
Bit rate                                 : 192 Kbps
Channel(s)                               : 2 channels
Channel positions                        : Front: L R
Sampling rate                            : 48.0 KHz
Bit depth                                : 16 bits
Compression mode                         : Lossy
Stream size                              : 163 MiB (6%)
Title                                    : MVO [TakTrebaProduction-Inter] 2.0 192 kbps [Hurtom-DеLight]
Language                                 : Ukrainian
Default                                  : Yes
Forced                                   : Yes

Audio #2
ID                                       : 3
Format                                   : AC-3
Format/Info                              : Audio Coding 3
Mode extension                           : CM (complete main)
Format settings, Endianness              : Big
Codec ID                                 : A_AC3
Duration                                 : 1h 59mn
Bit rate mode                            : Constant
Bit rate                                 : 384 Kbps
Channel(s)                               : 6 channels
Channel positions                        : Front: L C R, Side: L R, LFE
Sampling rate                            : 48.0 KHz
Bit depth                                : 16 bits
Compression mode                         : Lossy
Stream size                              : 327 MiB (11%)
Title                                    : Original 5.1 384 Kbps
Language                                 : English
Default                                  : No
Forced                                   : No

Menu
00:00:00.000                             : en:Chapter 1
00:10:27.710                             : en:Chapter 2
00:17:05.733                             : en:Chapter 3
00:22:42.361                             : en:Chapter 4
00:28:02.514                             : en:Chapter 5
00:34:56.011                             : en:Chapter 6
00:38:48.868                             : en:Chapter 7
00:45:04.452                             : en:Chapter 8
00:47:58.584                             : en:Chapter 9
00:54:02.573                             : en:Chapter 10
01:02:45.804                             : en:Chapter 11
01:05:56.411                             : en:Chapter 12
01:10:56.252                             : en:Chapter 13
01:17:37.152                             : en:Chapter 14
01:22:15.681                             : en:Chapter 15
01:26:38.985                             : en:Chapter 16
01:33:16.966                             : en:Chapter 17
01:36:41.337                             : en:Chapter 18
01:46:19.832                             : en:Chapter 19
01:54:18.185                             : en:Chapter 20




Джерела та подяки:
ріп відео, оригінальний звук - 0ptimus; українська доріжка - DеLight - зведення, dvorsky - запис з ТБ (обоє - Гуртом).


ЗАЛИШАЙТЕСЬ ЯКОМОГА ДОВШЕ НА РОЗДАЧІ!

СКАЧАВ САМ - ДАЙ СКАЧАТИ ІНШИМ


Срібний реліз (на рейтинг впливає 50% завантаженого)
 Трекер:    Зареєстрований   

Завантажити / скачати фільм українською



відео для новачків



 Зареєстрований:   2014-06-05 10:53
 Розмір:   2.87 GB 
 Оцінка фільму:   4.1/10 (Голосів: 16)
   
Інші релізи
Ваш часовий пояс: GMT + 2 Години

Нова тема   Відповісти