Завантажити та скачати торренти українською


Осмозіс Джонс / Osmosis Jones (2001) AVC Ukr/Eng | Sub Eng

Нові коментарі

Нова тема   Відповісти
Автор Повідомлення
Anonymous 







2014-06-01 01:59  
Осмозіс Джонс / Osmosis Jones (2001) AVC Ukr/Eng | Sub Eng



Жанр: анімація, фентезі, бойовик, комедія, пригодницький, сімейний
Країна: США



Кінокомпанія: Warner Bros., Conundrum Entertainment
Режисер: Боббі Фарреллі / Bobby Farrelly, Пітер Фарреллі / Peter Farrelly
Актори: Білл Мюррей / Bill Murray, Лоуренс Фішберн / Laurence Fishburne, Елена Франклін / Elena Franklin, Моллі Шеннон / Molly Shannon, Кріс Елліот / Chris Elliott, Кріс Рок / Chris Rock, Девід Хайд Пірс / David Hyde Pierce, Бренді Норвуд / Brandy Norwood, Вільям Шетнер / William Shatner, Рон Говард / Ron Howard, Кід Рок / Kid Rock, Кенні Олсон / Kenny Olson, Джейсон Краузе / Jason Krause, Джо С. / Joe C. та інші

Сюжет:
Він - новий герой. Одноклітинний герой нашого часу. Він - Осмозіс Джонс. Цей мультиплікаційний бойовик починається з того, що Френк проковтує лиходійський вірус на ім'я Трекс. Тепер, глибоко усередині дивовижних мультиплікаційних нутрощів міста Френк, самотній поліцейський - біла кров'яна клітина на ім'я Осмозіс Джонс та його наполегливий помічник Дрікс повинні перешкодити смертельній епідемії, що її розв'язав Трекс!



Рейтинг MPAA: PG - рекомендується присутність батьків
Вікова категорія: 6+


Тривалість: 01:35:23
Якість: AVC
Відео:
кодек:
розмір кадру: 1024x432
бітрейт: 2249 кбіт/с

Аудіо # 1:
мова: українська
переклад: двоголосий закадровий
кодек: 5.1
бітрейт: 384 кбіт/с

Аудіо # 2:
мова: англійська
переклад: оригінал
кодек: 5.1
бітрейт: 384 кбіт/с

Субтитри # 1:
мова: українська (форсовані) - на кілька неозвучених українською фраз
тип: програмні (м'які)
формат: *.srt

Субтитри # 2-3:
мова: англійська (варіант1), англійська (варіант2)
тип: програмні (м'які)
формат: *.srt

Збережено оригінальні розділи.
MediaInfo та
[info]: frame I:1287 Avg QP:12.82 size: 70687
[info]: frame P:38536 Avg QP:15.51 size: 23217
[info]: frame B:97406 Avg QP:18.08 size: 6400
[info]: consecutive B-frames: 3.9% 6.9% 8.0% 62.8% 9.7% 7.1% 0.8% 0.6% 0.2% 0.1%
Код:
General
Unique ID                                : 237350603882409987806834420305460352548 (0xB2901043BC22EC1EB22D02196D0E5624)
Complete name                            : Osmosis Jones (2001) [Ukr,Eng sub.Eng] AVC [Hurtom].mkv
Format                                   : Matroska
Format version                           : Version 4 / Version 2
File size                                : 2.01 GiB
Duration                                 : 1h 35mn
Overall bit rate                         : 3 019 Kbps
Movie name                               : Осмозіс Джонс / Osmosis Jones (2001) AVC [Hurtom]
Encoded date                             : UTC 2014-05-31 22:54:50
Writing application                      : mkvmerge v6.9.1 ('Blue Panther') 64bit built on Apr 18 2014 18:23:38
Writing library                          : libebml v1.3.0 + libmatroska v1.4.1

Video
ID                                       : 1
Format                                   : AVC
Format/Info                              : Advanced Video Codec
Format profile                           : [email protected]
Format settings, CABAC                   : Yes
Format settings, ReFrames                : 11 frames
Codec ID                                 : V_MPEG4/ISO/AVC
Duration                                 : 1h 35mn
Bit rate                                 : 2 249 Kbps
Width                                    : 1 024 pixels
Height                                   : 432 pixels
Display aspect ratio                     : 2.40:1
Frame rate mode                          : Constant
Frame rate                               : 23.976 fps
Color space                              : YUV
Chroma subsampling                       : 4:2:0
Bit depth                                : 8 bits
Scan type                                : Progressive
Bits/(Pixel*Frame)                       : 0.212
Stream size                              : 1.46 GiB (73%)
Title                                    : Осмозіс Джонс / Osmosis Jones / Осмосис Джонс (2001) AVC [StarbirS]
Writing library                          : core 138 r2358 9e941d1
Encoding settings                        : cabac=1 / ref=11 / deblock=1:-3:-3 / analyse=0x3:0x133 / me=umh / subme=11 / psy=1 / psy_rd=1.00:0.00 / mixed_ref=1 / me_range=32 / chroma_me=1 / trellis=2 / 8x8dct=1 / cqm=0 / deadzone=21,11 / fast_pskip=1 / chroma_qp_offset=-2 / threads=12 / lookahead_threads=2 / sliced_threads=0 / nr=0 / decimate=1 / interlaced=0 / bluray_compat=0 / constrained_intra=0 / bframes=9 / b_pyramid=2 / b_adapt=2 / b_bias=0 / direct=3 / weightb=1 / open_gop=1 / weightp=2 / keyint=230 / keyint_min=23 / scenecut=40 / intra_refresh=0 / rc_lookahead=40 / rc=2pass / mbtree=1 / bitrate=2249 / ratetol=1.0 / qcomp=0.60 / qpmin=0 / qpmax=69 / qpstep=4 / cplxblur=20.0 / qblur=0.5 / ip_ratio=1.40 / aq=1:1.00
Language                                 : English
Default                                  : Yes
Forced                                   : No

Audio #1
ID                                       : 2
Format                                   : AC-3
Format/Info                              : Audio Coding 3
Mode extension                           : CM (complete main)
Format settings, Endianness              : Big
Codec ID                                 : A_AC3
Duration                                 : 1h 35mn
Bit rate mode                            : Constant
Bit rate                                 : 384 Kbps
Channel(s)                               : 6 channels
Channel positions                        : Front: L C R, Side: L R, LFE
Sampling rate                            : 48.0 KHz
Bit depth                                : 16 bits
Compression mode                         : Lossy
Stream size                              : 262 MiB (13%)
Title                                    : DVO [Novyj] 5.1 384 Kbps [Hurtom-imonko]
Language                                 : Ukrainian
Default                                  : Yes
Forced                                   : Yes

Audio #2
ID                                       : 3
Format                                   : AC-3
Format/Info                              : Audio Coding 3
Mode extension                           : CM (complete main)
Format settings, Endianness              : Big
Codec ID                                 : A_AC3
Duration                                 : 1h 35mn
Bit rate mode                            : Constant
Bit rate                                 : 384 Kbps
Channel(s)                               : 6 channels
Channel positions                        : Front: L C R, Side: L R, LFE
Sampling rate                            : 48.0 KHz
Bit depth                                : 16 bits
Compression mode                         : Lossy
Stream size                              : 262 MiB (13%)
Title                                    : Original
Language                                 : English
Default                                  : No
Forced                                   : No

Text #1
ID                                       : 4
Format                                   : UTF-8
Codec ID                                 : S_TEXT/UTF8
Codec ID/Info                            : UTF-8 Plain Text
Title                                    : Ukr Forced
Language                                 : Ukrainian
Default                                  : Yes
Forced                                   : Yes

Text #2
ID                                       : 5
Format                                   : UTF-8
Codec ID                                 : S_TEXT/UTF8
Codec ID/Info                            : UTF-8 Plain Text
Title                                    : Eng Full #1 (DVD)
Language                                 : English
Default                                  : No
Forced                                   : No

Text #3
ID                                       : 6
Format                                   : UTF-8
Codec ID                                 : S_TEXT/UTF8
Codec ID/Info                            : UTF-8 Plain Text
Title                                    : Eng Full #2 (DVD)
Language                                 : English
Default                                  : No
Forced                                   : No

Menu
00:00:00.000                             : en:1
00:11:04.000                             : en:2
00:18:16.000                             : en:3
00:26:25.000                             : en:4
00:32:09.000                             : en:5
00:40:44.000                             : en:6
00:48:38.000                             : en:7
00:55:35.000                             : en:8
01:05:25.000                             : en:9
01:12:58.000                             : en:10
01:19:02.000                             : en:11
01:26:56.000                             : en:12




Джерела та подяки:
ріп відео, оригінальні звук та субтитри - StarbirS (кінозал); українська доріжка - imonko - зведення, OlegCena - запис з ТБ (обоє - Гуртом).

Особиста оцінка: 10 - рекомендую всім дітям та їх батькам


ЗАЛИШАЙТЕСЬ ЯКОМОГА ДОВШЕ НА РОЗДАЧІ!

СКАЧАВ САМ - ДАЙ СКАЧАТИ ІНШИМ


Срібний реліз (на рейтинг впливає 50% завантаженого)
 Трекер:    Зареєстрований   

Завантажити / скачати мультфільм українською



відео для новачків



 Зареєстрований:   2014-06-01 01:59
 Розмір:   2.01 GB 
 Оцінка мультфільму:   5.7/10 (Голосів: 21)
   
Інші релізи
   Осмозіс Джонс / Osmosis Jones (2001) 720p Ukr/Eng | Sub Multi igor911  3 / 0   3.37 GB   2014-05-31 16:36 
   Осмозіс Джонс / Osmosis Jones (2001) Ukr/Eng |Sub Eng imonko  6 / 0   1.72 GB   2012-02-05 22:43 
Ваш часовий пояс: GMT + 2 Години

Нова тема   Відповісти