Завантажити та скачати торренти українською


Спіріт - душа прерій / Spirit: Stallion of the Cimarron (2002) AVC Ukr/Eng | Sub Eng

Нові коментарі

Нова тема   Відповісти
Автор Повідомлення
Anonymous 







2014-05-31 18:10  
Спіріт - душа прерій / Spirit: Stallion of the Cimarron (2002) AVC Ukr/Eng | Sub Eng



Альтернативний постер



Жанр: анімація, мелодрама, комедія, пригодницький, вестерн
Країна: США

Номінації на Оскар (Кращий анімаційний фільм) та Золотий глобус (Краща пісня - "Here I Am" Браяна Адамса)

Кінокомпанія: DreamWorks Animation, DreamWorks SKG
Режисер: Келлі Асбарі / Kelly Asbury, Лорна Кук / Lorna Cook
Актори: Мет Деймон/Matt Damon, Джеймс Кромвел/James Cromwell, Даніель Студі (Daniel Studi), Чопер Бернет (Chopper Bernet та інші

Сюжет:
Дикий мустанг на ім'я Спіріт – жеребець, що живе в степах дикого Заходу. Ставши вожаком свого табуна, він захищає мустангів від чотироногих хижаків і першим приймає на себе удар, коли до них наближаються двоногі вороги – солдати армії США, що будують залізницю і воюють з місцевими індіанцями. Ціною власної свободи Спіріту вдається спасти інших від упряжі і шлей, але навіть самим досвідченим наїздникам не вдається осідлати його – надто вже він прудкий, сильний і гарячий. Тільки полоненому зовсім юному індіанцю Спіріт дається в руки, щоб разом з ним втекти подалі від нестримного наступу цивилізації.



Рейтинг MPAA: G - нема вікових обмежень
Вікова категорія: 0+


Тривалість: 01:23:28
Якість: AVC
Відео:
кодек:
розмір кадру: 1024x438
бітрейт: 2000 кбіт/с

Аудіо # 1:
мова: українська
переклад: багатоголосий закадровий
ролі озвучили: Дмитро Завадський та інші
кодек: 5.1
бітрейт: 448 кбіт/с

Аудіо # 2:
мова: англійська
переклад: оригінал
кодек: 5.1
бітрейт: 448 кбіт/с

Субтитри:
мова: англійська
тип: програмні (м'які)
формат: *.srt

Збережено оригінальні розділи, як на Blu-ray.
MediaInfo та
[info]: frame I:1341 Avg QP:11.10 size:104338
[info]: frame P:33641 Avg QP:17.14 size: 18577
[info]: frame B:85111 Avg QP:19.91 size: 5729
[info]: consecutive B-frames: 4.2% 9.4% 10.9% 47.0% 13.2% 8.9% 1.6% 1.2% 1.0% 1.1% 1.5%
[info]: mb I I16..4: 17.5% 41.1% 41.4%
[info]: mb P I16..4: 1.1% 6.2% 3.5% P16..4: 23.5% 23.9% 13.1% 0.0% 0.0% skip:28.8%
[info]: mb B I16..4: 0.1% 1.0% 0.6% B16..8: 22.6% 11.4% 3.2% direct: 2.4% skip:58.7% L0:43.2% L1:44.9% BI:11.9%
[info]: 8x8 transform intra:54.9% inter:33.8%
[info]: direct mvs spatial:90.1% temporal:9.9%
[info]: coded y,uvDC,uvAC intra: 82.6% 83.6% 66.9% inter: 12.8% 13.3% 8.2%
[info]: i16 v,h,dc,p: 21% 16% 22% 40%
[info]: i8 v,h,dc,ddl,ddr,vr,hd,vl,hu: 12% 16% 11% 7% 9% 8% 12% 9% 16%
[info]: i4 v,h,dc,ddl,ddr,vr,hd,vl,hu: 15% 12% 9% 9% 12% 10% 12% 9% 13%
[info]: i8c dc,h,v,p: 39% 33% 15% 12%
[info]: Weighted P-Frames: Y:3.4% UV:2.5%
[info]: ref P L0: 54.8% 5.5% 14.7% 7.2% 4.4% 4.4% 3.0% 2.1% 1.6% 1.9% 0.4% 0.0%
[info]: ref B L0: 75.6% 10.2% 5.6% 2.4% 2.1% 1.6% 1.3% 0.7% 0.4%
[info]: ref B L1: 92.8% 7.2%
[info]: kb/s:2000
Код:
General
Unique ID                                : 254046425163777467447876646117280451354 (0xBF1F8FCEC408597D9EC4483BC4B60B1A)
Complete name                            : Spirit - Stallion of the Cimarron (2002) [Ukr,Eng sub.Eng] AVC [Hurtom & MediaClub].mkv
Format                                   : Matroska
Format version                           : Version 4 / Version 2
File size                                : 1.69 GiB
Duration                                 : 1h 23mn
Overall bit rate                         : 2 898 Kbps
Movie name                               : Спіріт - душа прерій / Spirit: Stallion of the Cimarron (2002) AVC [Hurtom & MediaClub]
Encoded date                             : UTC 2014-05-31 15:30:17
Writing application                      : mkvmerge v6.9.1 ('Blue Panther') 64bit built on Apr 18 2014 18:23:38
Writing library                          : libebml v1.3.0 + libmatroska v1.4.1

Video
ID                                       : 1
Format                                   : AVC
Format/Info                              : Advanced Video Codec
Format profile                           : [email protected]
Format settings, CABAC                   : Yes
Format settings, ReFrames                : 10 frames
Codec ID                                 : V_MPEG4/ISO/AVC
Duration                                 : 1h 23mn
Bit rate                                 : 2 000 Kbps
Width                                    : 1 024 pixels
Height                                   : 438 pixels
Display aspect ratio                     : 2.35:1
Frame rate mode                          : Constant
Frame rate                               : 23.976 fps
Color space                              : YUV
Chroma subsampling                       : 4:2:0
Bit depth                                : 8 bits
Scan type                                : Progressive
Bits/(Pixel*Frame)                       : 0.186
Stream size                              : 1.13 GiB (67%)
Title                                    : Спіріт - душа прерій / Spirit: Stallion of the Cimarron / Спирит: Душа прерий (2002) AVC [MediaClub-Odessit]
Writing library                          : core 142 r2409+42 04be48a tMod [[email protected] X86_64]
Encoding settings                        : cabac=1 / ref=10 / deblock=1:-2:-2 / analyse=0x3:0x113 / me=umh / subme=11 / psy=1 / fade_compensate=0.00 / psy_rd=1.03:0.20 / mixed_ref=1 / me_range=48 / chroma_me=1 / trellis=2 / 8x8dct=1 / cqm=0 / deadzone=21,11 / fast_pskip=0 / chroma_qp_offset=-3 / threads=6 / lookahead_threads=1 / sliced_threads=0 / nr=0 / decimate=0 / interlaced=0 / bluray_compat=0 / constrained_intra=0 / fgo=0 / bframes=10 / b_pyramid=2 / b_adapt=2 / b_bias=0 / direct=3 / weightb=1 / open_gop=0 / weightp=2 / keyint=240 / keyint_min=23 / scenecut=40 / intra_refresh=0 / rc_lookahead=40 / rc=2pass / mbtree=1 / bitrate=2000 / ratetol=1.0 / qcomp=0.60 / qpmin=0:0:0 / qpmax=69:69:69 / qpstep=4 / cplxblur=20.0 / qblur=0.5 / ip_ratio=1.40 / aq=2:0.90 / aq-sensitivity=10.00 / aq-factor=1.00:1.00:1.00 / aq2=0 / aq3=0
Language                                 : English
Default                                  : Yes
Forced                                   : No

Audio #1
ID                                       : 2
Format                                   : AC-3
Format/Info                              : Audio Coding 3
Mode extension                           : CM (complete main)
Format settings, Endianness              : Big
Codec ID                                 : A_AC3
Duration                                 : 1h 23mn
Bit rate mode                            : Constant
Bit rate                                 : 448 Kbps
Channel(s)                               : 6 channels
Channel positions                        : Front: L C R, Side: L R, LFE
Sampling rate                            : 48.0 KHz
Bit depth                                : 16 bits
Compression mode                         : Lossy
Stream size                              : 268 MiB (15%)
Title                                    : MVO 5.1 448 Kbps [Hurtom-MechanicCDRR, dbdeveloper, Soyer]
Language                                 : Ukrainian
Default                                  : Yes
Forced                                   : Yes

Audio #2
ID                                       : 3
Format                                   : AC-3
Format/Info                              : Audio Coding 3
Mode extension                           : CM (complete main)
Format settings, Endianness              : Big
Codec ID                                 : A_AC3
Duration                                 : 1h 23mn
Bit rate mode                            : Constant
Bit rate                                 : 448 Kbps
Channel(s)                               : 6 channels
Channel positions                        : Front: L C R, Side: L R, LFE
Sampling rate                            : 48.0 KHz
Bit depth                                : 16 bits
Compression mode                         : Lossy
Stream size                              : 268 MiB (15%)
Title                                    : Original
Language                                 : English
Default                                  : No
Forced                                   : No

Text
ID                                       : 4
Format                                   : UTF-8
Codec ID                                 : S_TEXT/UTF8
Codec ID/Info                            : UTF-8 Plain Text
Title                                    : Eng full (SDH)
Language                                 : English
Default                                  : No
Forced                                   : No

Menu
00:00:00.000                             : en:Young Spirit
00:07:32.410                             : en:Leader Of His Herd
00:11:29.855                             : en:The Journey begins
00:18:15.010                             : en:Spirit Meets Man
00:20:40.280                             : en:A Strange New Place
00:23:22.359                             : en:You Can't Break Me
00:25:35.492                             : en:This One Seemed Different
00:30:11.184                             : en:The Great Escape
00:35:24.831                             : en:Indian Camp
00:38:47.950                             : en:Rain's World
00:42:06.148                             : en:Torn Two Ways
00:43:52.546                             : en:"Go Home"
00:48:10.637                             : en:The Calvalry Attacks
00:53:29.289                             : en:Remember Who You Are
00:57:18.810                             : en:Master Plan
01:00:49.437                             : en:Breaking Free
01:04:26.863                             : en:Leap of Faith
01:11:14.561                             : en:Farewell My Friend
01:14:07.234                             : en:The Return
01:16:12.109                             : en:End Credits


Відома пісня з мультфільму - номінант на Золотий глобус-2003: "Here I Am" Браяна Адамса




Джерела та подяки: &
ріп відео, оригінальні звук та субтитри - Odessit (MediaClub); українська доріжка - MechanicCDRR - зведення, Soyer - запис з ТБ, dbdeveloper - робота з 5.1; українські постери - Пушкар Остап та Dj BenLaden (всі - Гуртом).

Особиста оцінка: 10 - рекомендую всім дітям та їх батькам


ЗАЛИШАЙТЕСЬ ЯКОМОГА ДОВШЕ НА РОЗДАЧІ!

СКАЧАВ САМ - ДАЙ СКАЧАТИ ІНШИМ


Срібний реліз (на рейтинг впливає 50% завантаженого)
 Трекер:    Зареєстрований   

Завантажити / скачати мультфільм українською



відео для новачків



 Зареєстрований:   2014-05-31 18:10
 Розмір:   1.69 GB 
 Оцінка мультфільму:   7.7/10 (Голосів: 43)
   
awt1979 
Новенький


З нами з: 03.03.13
Востаннє: 10.12.16
Повідомлень: 5

2015-02-23 11:25  
Один з найкращих дитячих мультфільмів
Ваш часовий пояс: GMT + 2 Години

Нова тема   Відповісти