Завантажити та скачати торренти українською


Фантастична подорож / Fantastic Voyage (1966) 720p Ukr/Eng | Sub Eng

Нові коментарі

Нова тема   Відповісти
Автор Повідомлення
Anonymous 







2014-05-29 22:22  
Фантастична подорож / Fantastic Voyage (1966) 720p Ukr/Eng | Sub Eng



Альтернативний постер



Жанр: фантастика, пригодницький, сімейний
Країна: США




Оскар, 1967 рік
Переможець (2):
Краща робота художника (кольорові фільми)
Кращі візуальні ефекти


Кінокомпанія: Twentieth Century Fox Film Corporation
Режисер: Річард Фляйшер / Richard Fleischer
Актори: Стівен Бойд / Stephen Boyd, Раквел Велш / Raquel Welch, Едмонд О'Браєн / Edmond O'Brien, Дональд Плезенс / Donald Pleasence, Артур Кеннеді / Arthur Kennedy та інші

Сюжет:
Життя вченого в небезпеці. Врятувати його може тільки хірургічне втручання. Але звичайна операція на мозку навряд чи приведе до якогось позитивного результату.
І тому спеціальний підводний човен з екіпажем лікарів-науковців зменшується до розмірів молекули і шприцом впорскується у вену.
Завдання експедиції - зробити все можливе для ліквідації тромбу в мозку пацієнта. Час фантастичного рейса строго обмежено, рахунок йде на хвилини.



Рейтинг MPAA: PG - рекомендується присутність батьків
Вікова категорія: 12+


Тривалість: 01:40:37
Якість: 720p
Відео:
кодек:
розмір кадру: 1280x544
бітрейт: 12,8 Мбіт/с

Аудіо # 1:
мова: українська - Звук оцифровано з VHS-касети
переклад: двоголосий закадровий
ролі озвучили: Олександр Ігнатуша (усі чоловічі ролі)
кодек: 2.0
бітрейт: 192 кбіт/с

Аудіо # 2:
мова: англійська
переклад: оригінал
кодек: 5.1
бітрейт: 1536 кбіт/с

Аудіо # 3:
мова: англійська
переклад: коментарі №1
кодек: 2.0
бітрейт: 192 кбіт/с

Аудіо # 4:
мова: англійська
переклад: коментарі №2
кодек: 2.0
бітрейт: 224 кбіт/с

Субтитри:
мова: англійська
тип: програмні (м'які)
формат: *.srt

Збережено оригінальні розділи, як на Blu-ray.
MediaInfo
Код:
General
Unique ID                                : 202412909125242769788665227280133826666 (0x98474EEB890AA3B3A417E2ED87B6A86A)
Complete name                            : Fantastic Voyage (1966) [Ukr,Eng sub.Eng] 720p [Hurtom & HDClub].mkv
Format                                   : Matroska
Format version                           : Version 4 / Version 2
File size                                : 10.7 GiB
Duration                                 : 1h 40mn
Overall bit rate                         : 15.2 Mbps
Movie name                               : Фантастична подорож / Fantastic Voyage (1966) 720p [Hurtom & HDClub]
Encoded date                             : UTC 2014-05-29 19:18:39
Writing application                      : mkvmerge v6.9.1 ('Blue Panther') 64bit built on Apr 18 2014 18:23:38
Writing library                          : libebml v1.3.0 + libmatroska v1.4.1

Video
ID                                       : 1
Format                                   : AVC
Format/Info                              : Advanced Video Codec
Format profile                           : [email protected]
Format settings, CABAC                   : Yes
Format settings, ReFrames                : 12 frames
Codec ID                                 : V_MPEG4/ISO/AVC
Duration                                 : 1h 40mn
Bit rate                                 : 12.8 Mbps
Width                                    : 1 280 pixels
Height                                   : 544 pixels
Display aspect ratio                     : 2.35:1
Frame rate mode                          : Constant
Frame rate                               : 23.976 fps
Color space                              : YUV
Chroma subsampling                       : 4:2:0
Bit depth                                : 8 bits
Scan type                                : Progressive
Bits/(Pixel*Frame)                       : 0.766
Stream size                              : 8.99 GiB (84%)
Title                                    : Фантастична подорож / Fantastic Voyage / Фантастическое путешествие (1966) 720p [HDClub-LolHD]
Writing library                          : core 142 r2431kMod ac76440
Encoding settings                        : cabac=1 / ref=12 / deblock=1:-3:-3 / analyse=0x3:0x133 / me=umh / subme=11 / psy=1 / fade_compensate=0.00 / psy_rd=1.07:0.00 / mixed_ref=1 / me_range=32 / chroma_me=1 / trellis=2 / 8x8dct=1 / cqm=0 / deadzone=21,11 / fast_pskip=0 / chroma_qp_offset=-2 / threads=24 / lookahead_threads=4 / sliced_threads=0 / nr=0 / decimate=0 / interlaced=0 / bluray_compat=0 / constrained_intra=0 / fgo=0 / bframes=12 / b_pyramid=2 / b_adapt=2 / b_bias=0 / direct=3 / weightb=1 / open_gop=0 / weightp=2 / keyint=250 / keyint_min=23 / scenecut=40 / intra_refresh=0 / rc=crf / mbtree=0 / crf=16.2000 / qcomp=0.62 / qpmin=0 / qpmax=69 / qpstep=4 / ip_ratio=1.40 / pb_ratio=1.15 / aq=1:0.65
Language                                 : English
Default                                  : Yes
Forced                                   : No

Audio #1
ID                                       : 2
Format                                   : AC-3
Format/Info                              : Audio Coding 3
Mode extension                           : CM (complete main)
Format settings, Endianness              : Big
Codec ID                                 : A_AC3
Duration                                 : 1h 40mn
Bit rate mode                            : Constant
Bit rate                                 : 192 Kbps
Channel(s)                               : 2 channels
Channel positions                        : Front: L R
Sampling rate                            : 48.0 KHz
Bit depth                                : 16 bits
Compression mode                         : Lossy
Stream size                              : 138 MiB (1%)
Title                                    : DVO [VHS, 1+1] 2.0 192 Kbps [Hurtom-robotron005]
Language                                 : Ukrainian
Default                                  : Yes
Forced                                   : Yes

Audio #2
ID                                       : 3
Format                                   :
Format/Info                              : Digital Theater Systems
Mode                                     : 16
Format settings, Endianness              : Big
Codec ID                                 : A_DTS
Duration                                 : 1h 40mn
Bit rate mode                            : Constant
Bit rate                                 : 1 509 Kbps
Channel(s)                               : 6 channels
Channel positions                        : Front: L C R, Side: L R, LFE
Sampling rate                            : 48.0 KHz
Bit depth                                : 24 bits
Compression mode                         : Lossy
Stream size                              : 1.06 GiB (10%)
Title                                    : Original
Language                                 : English
Default                                  : No
Forced                                   : No

Audio #3
ID                                       : 4
Format                                   : AC-3
Format/Info                              : Audio Coding 3
Mode extension                           : CM (complete main)
Format settings, Endianness              : Big
Codec ID                                 : A_AC3
Duration                                 : 1h 40mn
Bit rate mode                            : Constant
Bit rate                                 : 192 Kbps
Channel(s)                               : 1 channel
Channel positions                        : Front: C
Sampling rate                            : 48.0 KHz
Bit depth                                : 16 bits
Compression mode                         : Lossy
Stream size                              : 138 MiB (1%)
Title                                    : Commentary #1
Language                                 : English
Default                                  : No
Forced                                   : No

Audio #4
ID                                       : 5
Format                                   : AC-3
Format/Info                              : Audio Coding 3
Mode extension                           : CM (complete main)
Format settings, Endianness              : Big
Codec ID                                 : A_AC3
Duration                                 : 1h 40mn
Bit rate mode                            : Constant
Bit rate                                 : 224 Kbps
Channel(s)                               : 2 channels
Channel positions                        : Front: L R
Sampling rate                            : 48.0 KHz
Bit depth                                : 16 bits
Compression mode                         : Lossy
Stream size                              : 161 MiB (1%)
Title                                    : Commentary #2
Language                                 : English
Default                                  : No
Forced                                   : No

Text
ID                                       : 6
Format                                   : UTF-8
Codec ID                                 : S_TEXT/UTF8
Codec ID/Info                            : UTF-8 Plain Text
Title                                    : Eng full
Language                                 : English
Default                                  : No
Forced                                   : No

Menu
00:00:00.000                             : en:Chapter 01
00:04:05.954                             : en:Chapter 02
00:05:48.515                             : en:Chapter 03
00:10:44.435                             : en:Chapter 04
00:13:45.158                             : en:Chapter 05
00:16:30.406                             : en:Chapter 06
00:23:19.481                             : en:Chapter 07
00:28:12.441                             : en:Chapter 08
00:34:04.542                             : en:Chapter 09
00:35:23.246                             : en:Chapter 10
00:38:18.421                             : en:Chapter 11
00:41:45.920                             : en:Chapter 12
00:43:25.937                             : en:Chapter 13
00:47:56.415                             : en:Chapter 14
00:53:58.193                             : en:Chapter 15
01:07:03.186                             : en:Chapter 16
01:10:57.587                             : en:Chapter 17
01:16:05.102                             : en:Chapter 18
01:22:08.799                             : en:Chapter 19
01:27:51.266                             : en:Chapter 20
01:32:31.713                             : en:Chapter 21
01:34:00.176                             : en:Chapter 22
01:37:29.927                             : en:Chapter 23
01:38:59.225                             : en:Chapter 24




Джерела та подяки: &
ріп відео, оригінальні звук та субтитри - HDClub; українська доріжка - robotron005 - зведення, кіномеханік, Tarasyk- запис з ТБ та оцифрування (всі - Гуртом).


ЗАЛИШАЙТЕСЬ ЯКОМОГА ДОВШЕ НА РОЗДАЧІ!

СКАЧАВ САМ - ДАЙ СКАЧАТИ ІНШИМ


Срібний реліз (на рейтинг впливає 50% завантаженого)
 Трекер:    Зареєстрований   

Завантажити / скачати фільм українською



відео для новачків



 Зареєстрований:   2014-05-29 22:22
 Розмір:   10.69 GB 
 Оцінка фільму:   4.2/10 (Голосів: 17)
   
Інші релізи
zaika 
VIP


З нами з: 01.07.12
Востаннє: 09.12.16
Повідомлень: 953

2014-06-25 17:27  
Цікава задумка. І, як завжди в 1+1, досконала озвучка. 7/10.
Ваш часовий пояс: GMT + 2 Години

Нова тема   Відповісти