Завантажити та скачати торренти українською


Way Station - The Ships (2013) [FLAC] | Post-Rock / Instrumental / Post-Metal

Нові коментарі

Нова тема   Цю тему закрито
Автор Повідомлення
muhomor 
VIP


З нами з: 04.12.11
Востаннє: 29.11.16
Повідомлень: 297

2014-05-28 06:15  
Way Station - The Ships (2013) [FLAC] | Post-Rock / Instrumental / Post-Metal

Way Station - The Ships (2013) [FLAC] | Post-Rock / Instrumental / Post-Metal


Стиль: Post-Rock / Instrumental / Post-Metal
Країна, місто: Україна, Київ
Сайти: Офіційний сайт
Видавець: AZH
Виконавці:
Нікіта Юдін – гітари, вокал
Василь Старшинов – бас-гітара
Віталій Єрмак – ударні
Пісні:
    01. Voyager
    02. The Noise Was Ended Now
    03. Summer Fog
    04. Road
    05. Dark Sea
    06. Корабли (The Ships)
    07. The Heaven And The Earth
    08. Last Launch (part I)
    09. Last Launch (part II)
Audiochecker

AUDIOCHECKER v2.0 beta (build 457) - by Dester - [email protected]
~~~~~~~~~~~~~~~~~~~~~~~~~~~~~~~~~~

Started at: понедельник, 26. 05. 2014. - 10:19.38
9 files found

1 -===- D:\hurtom.com\Way Station - «The Ships» (2013) (FLAC)\01 Way Station Voyager.flac
Extracted successfully
Conclusion: this track is CDDA with probability 100%
Tempfile successfully deleted.

2 -===- D:\hurtom.com\Way Station - «The Ships» (2013) (FLAC)\02 Way Station The Noise Was Ended Now.flac
Extracted successfully
Conclusion: this track is CDDA with probability 100%
Tempfile successfully deleted.

3 -===- D:\hurtom.com\Way Station - «The Ships» (2013) (FLAC)\03 Way Station Summer Fog.flac
Extracted successfully
Conclusion: this track is CDDA with probability 100%
Tempfile successfully deleted.

4 -===- D:\hurtom.com\Way Station - «The Ships» (2013) (FLAC)\04 Way Station Road.flac
Extracted successfully
Conclusion: this track is CDDA with probability 100%
Tempfile successfully deleted.

5 -===- D:\hurtom.com\Way Station - «The Ships» (2013) (FLAC)\05 Way Station Dark Sea.flac
Extracted successfully
Conclusion: this track is CDDA with probability 100%
Tempfile successfully deleted.

6 -===- D:\hurtom.com\Way Station - «The Ships» (2013) (FLAC)\06 Way Station Корабли (The Ships).flac
Extracted successfully
Conclusion: this track is CDDA with probability 100%
Tempfile successfully deleted.

7 -===- D:\hurtom.com\Way Station - «The Ships» (2013) (FLAC)\07 Way Station The Heaven And The Earth.flac
Extracted successfully
Conclusion: this track is CDDA with probability 100%
Tempfile successfully deleted.

8 -===- D:\hurtom.com\Way Station - «The Ships» (2013) (FLAC)\08 Way Station Last Launch (part I).flac
Extracted successfully
Conclusion: this track is CDDA with probability 100%
Tempfile successfully deleted.

9 -===- D:\hurtom.com\Way Station - «The Ships» (2013) (FLAC)\09 Way Station Last Launch (part II).flac
Extracted successfully
Conclusion: this track is CDDA with probability 100%
Tempfile successfully deleted.

Finished at: понедельник, 26. 05. 2014. - 10:25.44 (operation time: 0:06.06)
Log

Exact Audio Copy V1.0 beta 3 from 29. August 2011

Отчёт EAC об извлечении, выполненном 26. мая 2014, 10:14

Way Station / 2013 - The Ships

Дисковод: ASUS DRW-2014S1T Adapter: 2 ID: 8

Режим чтения : Достоверность
Использование точного потока : Да
Отключение кэша аудио : Да
Использование указателей C2 : Нет

Коррекция смещения при чтении : 6
Способность читать области Lead-in и Lead-out : Нет
Заполнение пропущенных сэмплов тишиной : Да
Удаление блоков с тишиной в начале и конце : Нет
При вычислениях CRC использовались нулевые сэмплы : Да
Интерфейс : Встроенный Win32-интерфейс для Win NT/2000
Обработка зазоров : Добавлено к предыдущему треку

Выходной формат : Пользовательский кодировщик
Выбранный битрейт : 128 kBit/s
Качество : Высокий
Добавление ID3-тега : Нет
Утилита сжатия : C:\Program Files\Exact Audio Copy\Flac\flac.exe
Дополнительные параметры : -V -8 -T "Genre=%genre%" -T "Artist=%artist%" -T "Title=%title%" -T "Album=%albumtitle%" -T "Date=%year%" -T "Tracknumber=%tracknr%" -T "Comment=%comment%" %source%

TOC извлечённого CD

Трек | Старт | Длительность | Начальный сектор | Конечный сектор
---------------------------------------------------------------------
1 | 0:00.00 | 5:44.48 | 0 | 25847
2 | 5:44.48 | 4:34.23 | 25848 | 46420
3 | 10:18.71 | 3:44.43 | 46421 | 63263
4 | 14:03.39 | 6:59.40 | 63264 | 94728
5 | 21:03.04 | 5:39.63 | 94729 | 120216
6 | 26:42.67 | 5:07.00 | 120217 | 143241
7 | 31:49.67 | 4:21.36 | 143242 | 162852
8 | 36:11.28 | 3:32.32 | 162853 | 178784
9 | 39:43.60 | 7:07.60 | 178785 | 210869

Трек 1

Имя файла D:\Documents and Settings\user\Рабочий стол\«»—0–\01 Way Station Voyager.wav

Длина предзазора 0:00:02.00

Пиковый уровень 100.0 %
Скорость извлечения 4.4 X
Качество трека 99.9 %
CRC копии C2548A1A
Копирование... OK

Трек 2

Имя файла D:\Documents and Settings\user\Рабочий стол\«»—0–\02 Way Station The Noise Was Ended Now.wav

Пиковый уровень 100.0 %
Скорость извлечения 5.5 X
Качество трека 100.0 %
CRC копии 80BAB4FB
Копирование... OK

Трек 3

Имя файла D:\Documents and Settings\user\Рабочий стол\«»—0–\03 Way Station Summer Fog.wav

Пиковый уровень 75.6 %
Скорость извлечения 5.7 X
Качество трека 100.0 %
CRC копии AC10F290
Копирование... OK

Трек 4

Имя файла D:\Documents and Settings\user\Рабочий стол\«»—0–\04 Way Station Road.wav

Пиковый уровень 100.0 %
Скорость извлечения 6.6 X
Качество трека 100.0 %
CRC копии EC6BB820
Копирование... OK

Трек 5

Имя файла D:\Documents and Settings\user\Рабочий стол\«»—0–\05 Way Station Dark Sea.wav

Пиковый уровень 100.0 %
Скорость извлечения 7.0 X
Качество трека 100.0 %
CRC копии 2F25A4A3
Копирование... OK

Трек 6

Имя файла D:\Documents and Settings\user\Рабочий стол\«»—0–\06 Way Station Корабли (The Ships).wav

Пиковый уровень 100.0 %
Скорость извлечения 7.0 X
Качество трека 100.0 %
CRC копии 265B175F
Копирование... OK

Трек 7

Имя файла D:\Documents and Settings\user\Рабочий стол\«»—0–\07 Way Station The Heaven And The Earth.wav

Пиковый уровень 100.0 %
Скорость извлечения 7.4 X
Качество трека 100.0 %
CRC копии 61769A40
Копирование... OK

Трек 8

Имя файла D:\Documents and Settings\user\Рабочий стол\«»—0–\08 Way Station Last Launch (part I).wav

Пиковый уровень 100.0 %
Скорость извлечения 7.3 X
Качество трека 100.0 %
CRC копии 31291580
Копирование... OK

Трек 9

Имя файла D:\Documents and Settings\user\Рабочий стол\«»—0–\09 Way Station Last Launch (part II).wav

Пиковый уровень 100.0 %
Скорость извлечения 8.3 X
Качество трека 100.0 %
CRC копии 0D59820C
Копирование... OK

Ошибок не произошло

Конец отчёта

==== Контрольная сумма отчёта F64BF5E70F5353D287C9148C48FF78644B680FD87E569E73132A91B806922FD1 ====
Тривалість: 00:46:47
Мова: інструментальні композиції (1–5, 7–9), російська (6)
Аудіо-кодек: FLAC
Бітрейт: 881 кб/с
Джерело: ріп зроблено з ліцензійного компакт-диска із власної фонотеки
Додаткова інформація:
від себе додам, що це один з найкращих альбомів вітчизняних артистів, який побачив світ минулого року


Якщо Ви справді бажаєте підтримати українське - після прослуховування, якщо музика вам сподобалась, придбайте ліцензійний диск. Підтримаймо вітчизняних виконавців!


Срібний реліз (на рейтинг впливає 50% завантаженого)
 Трекер:    Зареєстрований   

Завантажити / скачати українську музику



відео для новачків



 Зареєстрований:   2014-05-28 06:15
 Розмір:   295 MB 
 Оцінка музики:   8.2/10 (Голосів: 5)
   
Ваш часовий пояс: GMT + 2 Години

Нова тема   Цю тему закрито