Завантажити та скачати торренти українською


С.К.А.Й. (СКАЙ) | Дискографія [4 альбоми, 1 збірка] (2006-2014) [FLAC] | Rock

Нові коментарі

Нова тема   Відповісти
Автор Повідомлення
vamp69 
Поважний учасник


З нами з: 06.07.09
Востаннє: 09.12.16
Повідомлень: 173

2014-05-25 15:54  
С.К.А.Й. (СКАЙ) | Дискографія [4 альбоми, 1 збірка] (2006-2014) [FLAC] | Rock


Стиль: Pop Rock
Країна, місто: Україна, Тернопіль
Сайти: Офіційний сайт
Видавець: Lavina Music
Виконавці:
Собчук Олег - Вокал, гітара, тексти
Грищук Олександр - Соло гітара, бек-вокал
Тарасенко Олег - Бас-гітара
Мозіль Юрій - Клавішні
Безверхий Юрій - Ударні
Альбоми:
    2006 - Те, Що Треба


    01 - Виходьте з хати - 4:25
    02 - Тебе це може вбити - 4:43
    03 - Ремiкс - 2:41
    04 - Дике почуття - 4:15
    05 - Комплекс - 6:01
    06 - Лист додому - 5:18
    07 - Дивно - 3:08
    08 - 37 Пiсень - 4:12
    09 - Зникаю - 3:43
    10 - Вечерi нема - 3:43
    11 - Небо в твоiх очах - 3:59
    12 - Те що треба - 3:32
    Відео:
    Тебе це може вбити - 4:53
    General
    Complete name : I:\Українська музика\С.К.А.Й - Дискография (lossless)\2006 - Те Що Треба\video\Tebe_tse_mozhe_vbyty.divx
    Format : AVI
    Format/Info : Audio Video Interleave
    File size : 74.1 MiB
    Duration : 4mn 53s
    Overall bit rate : 2 115 Kbps
    Writing library : VirtualDub build 23174/release

    Video
    ID : 0
    Format : MPEG-4 Visual
    Format settings, BVOP : No
    Format settings, QPel : No
    Format settings, GMC : No warppoints
    Format settings, Matrix : Default (H.263)
    Codec ID : DX50
    Codec ID/Hint : DivX 5
    Duration : 4mn 53s
    Bit rate : 1 977 Kbps
    Width : 704 pixels
    Height : 448 pixels
    Display aspect ratio : 16:10
    Frame rate : 25.000 fps
    Color space : YUV
    Chroma subsampling : 4:2:0
    Bit depth : 8 bits
    Scan type : Progressive
    Compression mode : Lossy
    Bits/(Pixel*Frame) : 0.251
    Stream size : 69.2 MiB (93%)
    Writing library : DivX 6.1.1 (UTC 2006-02-01)

    Audio
    ID : 1
    Format : MPEG Audio
    Format version : Version 1
    Format profile : Layer 3
    Mode : Joint stereo
    Mode extension : MS Stereo
    Codec ID : 55
    Codec ID/Hint : MP3
    Duration : 4mn 53s
    Bit rate mode : Constant
    Bit rate : 128 Kbps
    Channel(s) : 2 channels
    Sampling rate : 48.0 KHz
    Compression mode : Lossy
    Stream size : 4.48 MiB (6%)
    Alignment : Split accross interleaves
    Interleave, duration : 40 ms (1.00 video frame)
    Interleave, preload duration : 500 ms
    Writing library : LAME3.97 (beta)ЄЄЄЄЄ
    Ремiкс - 2:52


    General
    Complete name : I:\Українська музика\С.К.А.Й - Дискография (lossless)\2006 - Те Що Треба\video\Remiks.divx
    Format : AVI
    Format/Info : Audio Video Interleave
    File size : 43.2 MiB
    Duration : 2mn 52s
    Overall bit rate : 2 098 Kbps
    Writing library : VirtualDub build 23174/release

    Video
    ID : 0
    Format : MPEG-4 Visual
    Format settings, BVOP : No
    Format settings, QPel : No
    Format settings, GMC : No warppoints
    Format settings, Matrix : Default (H.263)
    Codec ID : DX50
    Codec ID/Hint : DivX 5
    Duration : 2mn 52s
    Bit rate : 1 960 Kbps
    Width : 704 pixels
    Height : 448 pixels
    Display aspect ratio : 16:10
    Frame rate : 25.000 fps
    Color space : YUV
    Chroma subsampling : 4:2:0
    Bit depth : 8 bits
    Scan type : Progressive
    Compression mode : Lossy
    Bits/(Pixel*Frame) : 0.249
    Stream size : 40.3 MiB (93%)
    Writing library : DivX 6.1.1 (UTC 2006-02-01)

    Audio
    ID : 1
    Format : MPEG Audio
    Format version : Version 1
    Format profile : Layer 3
    Mode : Joint stereo
    Mode extension : MS Stereo
    Codec ID : 55
    Codec ID/Hint : MP3
    Duration : 2mn 52s
    Bit rate mode : Constant
    Bit rate : 128 Kbps
    Channel(s) : 2 channels
    Sampling rate : 48.0 KHz
    Compression mode : Lossy
    Stream size : 2.63 MiB (6%)
    Alignment : Split accross interleaves
    Interleave, duration : 40 ms (1.00 video frame)
    Interleave, preload duration : 500 ms
    Writing library : LAME3.97 (beta)ЄЄЄЄЄ
    Тривалість: 00:49:39
    Лог
    Exact Audio Copy V1.0 beta 3 from 29. August 2011

    EAC extraction logfile from 25. May 2014, 16:01

    С.К.А.Й. / Те Що Треба

    Used drive : ATAPI iHAS124 B Adapter: 4 ID: 0

    Read mode : Secure
    Utilize accurate stream : Yes
    Defeat audio cache : Yes
    Make use of C2 pointers : No

    Read offset correction : 6
    Overread into Lead-In and Lead-Out : No
    Fill up missing offset samples with silence : Yes
    Delete leading and trailing silent blocks : No
    Null samples used in CRC calculations : Yes
    Used interface : Native Win32 interface for Win NT & 2000

    Used output format : Internal WAV Routines
    Sample format : 44.100 Hz; 16 Bit; Stereo

    TOC of the extracted CD

    Track | Start | Length | Start sector | End sector
    ---------------------------------------------------------
    1 | 0:00.00 | 4:24.48 | 0 | 19847
    2 | 4:24.48 | 4:43.02 | 19848 | 41074
    3 | 9:07.50 | 2:41.02 | 41075 | 53151
    4 | 11:48.52 | 4:15.12 | 53152 | 72288
    5 | 16:03.64 | 6:01.33 | 72289 | 99396
    6 | 22:05.22 | 5:17.39 | 99397 | 123210
    7 | 27:22.61 | 3:07.57 | 123211 | 137292
    8 | 30:30.43 | 4:12.02 | 137293 | 156194
    9 | 34:42.45 | 3:43.37 | 156195 | 172956
    10 | 38:26.07 | 3:42.71 | 172957 | 189677
    11 | 42:09.03 | 3:58.57 | 189678 | 207584
    12 | 46:07.60 | 3:32.08 | 207585 | 223492
    13 | 52:11.68 | 26:46.08 | 234893 | 355350

    Range status and errors

    Selected range

    Filename I:\Українська музика\С.К.А.Й - Дискография (lossless)\2006 - Те Що Треба\2006 - Те Що Треба.wav

    Peak level 97.7 %
    Extraction speed 6.1 X
    Range quality 100.0 %
    Test CRC DB7C05CE
    Copy CRC DB7C05CE
    Copy OK

    No errors occurred

    AccurateRip summary

    Track 1 accurately ripped (confidence 1) [BD6A09A0] (AR v2)
    Track 2 accurately ripped (confidence 1) [6B5DE029] (AR v2)
    Track 3 accurately ripped (confidence 1) [8D3DBC94] (AR v2)
    Track 4 accurately ripped (confidence 1) [EC4BBABE] (AR v2)
    Track 5 accurately ripped (confidence 1) [448309E0] (AR v2)
    Track 6 accurately ripped (confidence 1) [240B3291] (AR v2)
    Track 7 accurately ripped (confidence 1) [BD424EE6] (AR v2)
    Track 8 accurately ripped (confidence 1) [A9389327] (AR v2)
    Track 9 accurately ripped (confidence 1) [92476E3C] (AR v2)
    Track 10 accurately ripped (confidence 1) [34F1A4DD] (AR v2)
    Track 11 accurately ripped (confidence 1) [48F549C9] (AR v2)
    Track 12 accurately ripped (confidence 1) [5C28E8F5] (AR v2)

    All tracks accurately ripped

    End of status report

    ---- CUETools DB Plugin V2.1.3

    [CTDB TOCID: gjcl5XJLHgry1v3duu9z1m_cvr0-] disk not present in database, Submit result: gjcl5XJLHgry1v3duu9z1m_cvr0- has been uploaded

    ==== Log checksum EFA3025BC1EC8B74DC7FE1A90F57740368D23ADE1B97F9522BDCECDF7D703535 ====
    2007 - Планета С.К.А.Й.


    01. Best Друг (4:02)
    02. Як мене звати (3:56)
    03. Восени (3:16)
    04. Я здатен на більше (2:47)
    05. Поки не пізно (3:19)
    06. Повернення (4:38)
    07. Дівчина в білому (4:40)
    08. Ваніль (4:44)
    09. Тетяночка (3:53)
    10. ОК (3:35)
    11. Планета (3:14)
    12. Хто ти мені (4:18)
    13. Будь зі мною (4:26)

    Відео:
    Як мене звати 3:59

    General
    Complete name : I:\Українська музика\С.К.А.Й - Дискография (lossless)\2007 - Планета С.К.А.Й\video\Yak mene zvati.divx
    Format : DivX
    Format/Info : Hack of AVI
    File size : 46.6 MiB
    Duration : 3mn 59s
    Overall bit rate : 1 635 Kbps

    Video
    ID : 0
    Format : MPEG-4 Visual
    Format settings, BVOP : No
    Format settings, QPel : No
    Format settings, GMC : No warppoints
    Format settings, Matrix : Default (H.263)
    Codec ID : DX50
    Codec ID/Hint : DivX 5
    Duration : 3mn 59s
    Bit rate : 1 497 Kbps
    Width : 704 pixels
    Height : 448 pixels
    Display aspect ratio : 16:10
    Frame rate : 25.000 fps
    Color space : YUV
    Chroma subsampling : 4:2:0
    Bit depth : 8 bits
    Scan type : Progressive
    Compression mode : Lossy
    Bits/(Pixel*Frame) : 0.190
    Stream size : 42.7 MiB (92%)
    Title : Main
    Writing library : DivX 6.7.0 (UTC 2007-09-20)

    Audio
    ID : 1
    Format : MPEG Audio
    Format version : Version 1
    Format profile : Layer 3
    Mode : Joint stereo
    Codec ID : 55
    Codec ID/Hint : MP3
    Duration : 3mn 59s
    Bit rate mode : Constant
    Bit rate : 128 Kbps
    Channel(s) : 2 channels
    Sampling rate : 48.0 KHz
    Compression mode : Lossy
    Stream size : 3.65 MiB (8%)
    Alignment : Split accross interleaves
    Interleave, duration : 40 ms (1.00 video frame)
    Interleave, preload duration : 500 ms
    Title : Audio
    Writing library : LAME3.97
    Best Друг 4:02
    General
    Complete name : I:\Українська музика\С.К.А.Й - Дискография (lossless)\2007 - Планета С.К.А.Й\video\Best Drug.divx
    Format : DivX
    Format/Info : Hack of AVI
    File size : 47.4 MiB
    Duration : 4mn 2s
    Overall bit rate : 1 638 Kbps

    Video
    ID : 0
    Format : MPEG-4 Visual
    Format settings, BVOP : No
    Format settings, QPel : No
    Format settings, GMC : No warppoints
    Format settings, Matrix : Default (H.263)
    Codec ID : DX50
    Codec ID/Hint : DivX 5
    Duration : 4mn 2s
    Bit rate : 1 500 Kbps
    Width : 704 pixels
    Height : 416 pixels
    Display aspect ratio : 1.692
    Frame rate : 25.000 fps
    Color space : YUV
    Chroma subsampling : 4:2:0
    Bit depth : 8 bits
    Scan type : Progressive
    Compression mode : Lossy
    Bits/(Pixel*Frame) : 0.205
    Stream size : 43.4 MiB (92%)
    Title : Main
    Writing library : DivX 6.7.0 (UTC 2007-09-20)

    Audio
    ID : 1
    Format : MPEG Audio
    Format version : Version 1
    Format profile : Layer 3
    Mode : Joint stereo
    Codec ID : 55
    Codec ID/Hint : MP3
    Duration : 4mn 2s
    Bit rate mode : Constant
    Bit rate : 128 Kbps
    Channel(s) : 2 channels
    Sampling rate : 48.0 KHz
    Compression mode : Lossy
    Stream size : 3.71 MiB (8%)
    Alignment : Split accross interleaves
    Interleave, duration : 40 ms (1.00 video frame)
    Interleave, preload duration : 500 ms
    Title : Audio
    Writing library : LAME3.97
    Тривалість: 00:50:49
    Лог:
    Exact Audio Copy V1.0 beta 3 from 29. August 2011

    EAC extraction logfile from 25. May 2014, 15:40

    С.К.А.Й. / Планета С.К.А.Й.

    Used drive : ATAPI iHAS124 B Adapter: 4 ID: 0

    Read mode : Secure
    Utilize accurate stream : Yes
    Defeat audio cache : Yes
    Make use of C2 pointers : No

    Read offset correction : 6
    Overread into Lead-In and Lead-Out : No
    Fill up missing offset samples with silence : Yes
    Delete leading and trailing silent blocks : No
    Null samples used in CRC calculations : Yes
    Used interface : Native Win32 interface for Win NT & 2000

    Used output format : Internal WAV Routines
    Sample format : 44.100 Hz; 16 Bit; Stereo

    TOC of the extracted CD

    Track | Start | Length | Start sector | End sector
    ---------------------------------------------------------
    1 | 0:00.00 | 4:02.29 | 0 | 18178
    2 | 4:02.29 | 3:55.71 | 18179 | 35874
    3 | 7:58.25 | 3:16.29 | 35875 | 50603
    4 | 11:14.54 | 2:46.38 | 50604 | 63091
    5 | 14:01.17 | 3:19.19 | 63092 | 78035
    6 | 17:20.36 | 4:38.18 | 78036 | 98903
    7 | 21:58.54 | 4:40.24 | 98904 | 119927
    8 | 26:39.03 | 4:44.11 | 119928 | 141238
    9 | 31:23.14 | 3:53.07 | 141239 | 158720
    10 | 35:16.21 | 3:35.24 | 158721 | 174869
    11 | 38:51.45 | 3:14.03 | 174870 | 189422
    12 | 42:05.48 | 4:17.67 | 189423 | 208764
    13 | 46:23.40 | 4:25.43 | 208765 | 228682
    14 | 53:21.08 | 22:03.62 | 240083 | 339369

    Range status and errors

    Selected range

    Filename I:\Українська музика\С.К.А.Й - Дискография (lossless)\2007 - Планета С.К.А.Й\2007 - Планета С.К.А.Й.wav

    Peak level 95.7 %
    Extraction speed 5.8 X
    Range quality 99.9 %
    Test CRC D00F6333
    Copy CRC D00F6333
    Copy OK

    No errors occurred

    AccurateRip summary

    Track 1 not present in database
    Track 2 not present in database
    Track 3 not present in database
    Track 4 not present in database
    Track 5 not present in database
    Track 6 not present in database
    Track 7 not present in database
    Track 8 not present in database
    Track 9 not present in database
    Track 10 not present in database
    Track 11 not present in database
    Track 12 not present in database
    Track 13 not present in database

    None of the tracks are present in the AccurateRip database

    End of status report

    ---- CUETools DB Plugin V2.1.3

    [CTDB TOCID: 2IjtqSTU9z0FQSxRvC88gUpXDFQ-] disk not present in database, Submit result: 2IjtqSTU9z0FQSxRvC88gUpXDFQ- has been uploaded

    ==== Log checksum F6EB27C2F36318FF9493FF4437635A51ED27A9180C5DC48948FBC22C7AE0DE72 ====
    2010 - ! (Знак оклику)


    01. Пам'ятай (3:43)
    02. Далеко (3:11)
    03. Сонце (3:06)
    04. Кіно (4:43)
    05. Ну а Я (3:13)
    06. Не так (4:38)
    07. Любов (4:08)
    08. Сліпа краса (4:25)
    09. З мене досить (3:49)
    10. Victoria (2:47)
    11. Porolon (3:46)
    12. ! (3:52)
    13. Galaktika (4:29)
    14. Світло (bonus track) (4:22)
    15. Світло (rock) (bonus track) (4:14)
    16. Porolon ('С.К.А.Й.' & Murik 'Green Grey') (bonus track) (4:06)
    17. ! ('С.К.А.Й.' & 'Пікардійська Терція') (bonus track) (4:34)

    Тривалість: 01:07:08
    Лог:
    Exact Audio Copy V1.0 beta 3 from 29. August 2011

    EAC extraction logfile from 24. May 2014, 12:52

    С.К.А.Й. / !

    Used drive : ATAPI iHAS124 B Adapter: 4 ID: 0

    Read mode : Secure
    Utilize accurate stream : Yes
    Defeat audio cache : Yes
    Make use of C2 pointers : No

    Read offset correction : 6
    Overread into Lead-In and Lead-Out : No
    Fill up missing offset samples with silence : Yes
    Delete leading and trailing silent blocks : No
    Null samples used in CRC calculations : Yes
    Used interface : Native Win32 interface for Win NT & 2000

    Used output format : Internal WAV Routines
    Sample format : 44.100 Hz; 16 Bit; Stereo

    TOC of the extracted CD

    Track | Start | Length | Start sector | End sector
    ---------------------------------------------------------
    1 | 0:00.00 | 3:43.17 | 0 | 16741
    2 | 3:43.17 | 3:11.16 | 16742 | 31082
    3 | 6:54.33 | 3:06.25 | 31083 | 45057
    4 | 10:00.58 | 4:43.16 | 45058 | 66298
    5 | 14:43.74 | 3:13.35 | 66299 | 80808
    6 | 17:57.34 | 4:37.66 | 80809 | 101649
    7 | 22:35.25 | 4:08.37 | 101650 | 120286
    8 | 26:43.62 | 4:25.00 | 120287 | 140161
    9 | 31:08.62 | 3:49.12 | 140162 | 157348
    10 | 34:57.74 | 2:46.66 | 157349 | 169864
    11 | 37:44.65 | 3:45.48 | 169865 | 186787
    12 | 41:30.38 | 3:52.28 | 186788 | 204215
    13 | 45:22.66 | 4:28.64 | 204216 | 224379
    14 | 49:51.55 | 4:21.54 | 224380 | 244008
    15 | 54:13.34 | 4:13.54 | 244009 | 263037
    16 | 58:27.13 | 4:06.11 | 263038 | 281498
    17 | 62:33.24 | 4:34.37 | 281499 | 302085

    Range status and errors

    Selected range

    Filename I:\Українська музика\С.К.А.Й - Дискография (lossless)\2010 - ! (Знак оклику)\2010 - ! (Знак оклику).wav

    Peak level 100.0 %
    Extraction speed 3.1 X
    Range quality 99.9 %
    Test CRC DC21D5E7
    Copy CRC DC21D5E7
    Copy OK

    No errors occurred

    AccurateRip summary

    Track 1 accurately ripped (confidence 1) [E7C8F93E] (AR v1)
    Track 2 accurately ripped (confidence 1) [88BB0890] (AR v1)
    Track 3 accurately ripped (confidence 1) [C268C296] (AR v1)
    Track 4 accurately ripped (confidence 1) [C372FBC0] (AR v1)
    Track 5 accurately ripped (confidence 1) [D2FAF410] (AR v1)
    Track 6 accurately ripped (confidence 1) [A4D77575] (AR v1)
    Track 7 accurately ripped (confidence 1) [7262C50A] (AR v1)
    Track 8 accurately ripped (confidence 1) [BBF4ABB4] (AR v1)
    Track 9 accurately ripped (confidence 1) [AD5C414F] (AR v1)
    Track 10 accurately ripped (confidence 1) [8B0A8BF1] (AR v1)
    Track 11 accurately ripped (confidence 1) [BD4A937E] (AR v1)
    Track 12 accurately ripped (confidence 1) [C67604C2] (AR v1)
    Track 13 accurately ripped (confidence 1) [BEDF5F47] (AR v1)
    Track 14 accurately ripped (confidence 1) [1D7CDDB6] (AR v1)
    Track 15 accurately ripped (confidence 1) [704CF732] (AR v1)
    Track 16 accurately ripped (confidence 1) [821F79A5] (AR v1)
    Track 17 accurately ripped (confidence 1) [B759E934] (AR v1)

    All tracks accurately ripped

    End of status report

    ---- CUETools DB Plugin V2.1.3

    [CTDB TOCID: B2nKlBdnjDAqZe3T4HS5VQAHd0s-] disk not present in database, Submit result: B2nKlBdnjDAqZe3T4HS5VQAHd0s- has been uploaded

    ==== Log checksum A8A5AE7419D63A5B5B10DAE52433B80DEDAF778EBE361ECCB86397DAC87901C4 ====
    2011 - 10 (Compilation)


    01. Best Друг (4:06)
    02. Як Мене Звати (4:00)
    03. Я Здатен На Більше (2:51)
    04. Повернення (4:42)
    05. Будь Зі Мною (4:30)
    06. Тебе Це Може Вбити (4:47)
    07. Remix (2:45)
    08. Лист До Дому (5:22)
    09. Зникаю (new version) (3:52)
    10. Те, Що Треба (3:38)
    11. Пам'ятай (3:47)
    12. Без Міри (4:02)
    13. Далеко (3:15)
    14. Сонце (3:10)
    15. Кіно (4:47)
    16. Світло (4:26)
    17. Ну А Я (3:17)
    18. Любов (4:12)
    19. Сліпа Краса (4:29)
    20. ! (3:52)

    Тривалість: 01:19:46
    Лог:
    Exact Audio Copy V1.0 beta 3 from 29. August 2011

    EAC extraction logfile from 23. May 2014, 16:56

    С.К.А.Й. / 10

    Used drive : ATAPI iHAS124 B Adapter: 4 ID: 0

    Read mode : Secure
    Utilize accurate stream : Yes
    Defeat audio cache : Yes
    Make use of C2 pointers : No

    Read offset correction : 6
    Overread into Lead-In and Lead-Out : No
    Fill up missing offset samples with silence : Yes
    Delete leading and trailing silent blocks : No
    Null samples used in CRC calculations : Yes
    Used interface : Native Win32 interface for Win NT & 2000

    Used output format : Internal WAV Routines
    Sample format : 44.100 Hz; 16 Bit; Stereo

    TOC of the extracted CD

    Track | Start | Length | Start sector | End sector
    ---------------------------------------------------------
    1 | 0:00.00 | 4:06.29 | 0 | 18478
    2 | 4:06.29 | 3:59.71 | 18479 | 36474
    3 | 8:06.25 | 2:50.38 | 36475 | 49262
    4 | 10:56.63 | 4:42.18 | 49263 | 70430
    5 | 15:39.06 | 4:29.43 | 70431 | 90648
    6 | 20:08.49 | 4:47.02 | 90649 | 112175
    7 | 24:55.51 | 2:45.02 | 112176 | 124552
    8 | 27:40.53 | 5:21.39 | 124553 | 148666
    9 | 33:02.17 | 3:52.37 | 148667 | 166103
    10 | 36:54.54 | 3:38.07 | 166104 | 182460
    11 | 40:32.61 | 3:47.13 | 182461 | 199498
    12 | 44:19.74 | 4:02.04 | 199499 | 217652
    13 | 48:22.03 | 3:15.11 | 217653 | 232288
    14 | 51:37.14 | 3:10.19 | 232289 | 246557
    15 | 54:47.33 | 4:47.11 | 246558 | 268093
    16 | 59:34.44 | 4:25.48 | 268094 | 288016
    17 | 64:00.17 | 3:17.31 | 288017 | 302822
    18 | 67:17.48 | 4:12.31 | 302823 | 321753
    19 | 71:30.04 | 4:28.70 | 321754 | 341923
    20 | 75:58.74 | 3:52.23 | 341924 | 359346

    Range status and errors

    Selected range

    Filename I:\Українська музика\С.К.А.Й - Дискография (lossless)\2011 - 10 (Compilation)\2011 - 10 (Compilation).wav

    Peak level 100.0 %
    Extraction speed 6.9 X
    Range quality 100.0 %
    Test CRC 6E37D1B1
    Copy CRC 6E37D1B1
    Copy OK

    No errors occurred

    AccurateRip summary

    Track 1 not present in database
    Track 2 not present in database
    Track 3 not present in database
    Track 4 not present in database
    Track 5 not present in database
    Track 6 not present in database
    Track 7 not present in database
    Track 8 not present in database
    Track 9 not present in database
    Track 10 not present in database
    Track 11 not present in database
    Track 12 not present in database
    Track 13 not present in database
    Track 14 not present in database
    Track 15 not present in database
    Track 16 not present in database
    Track 17 not present in database
    Track 18 not present in database
    Track 19 not present in database
    Track 20 not present in database

    None of the tracks are present in the AccurateRip database

    End of status report

    ---- CUETools DB Plugin V2.1.3

    [CTDB TOCID: jVw0CoMQjtO4loBADfVRXUo5yYI-] disk not present in database, Submit result: jVw0CoMQjtO4loBADfVRXUo5yYI- has been uploaded

    ==== Log checksum C6BB840B39110D64118639F5F20679639ACD084A06889477AF76C25B7390892B ====
    2014 - Край Неба
    Пісні:

      01. Ми разом! Мы вместе! (4:50)
      02. Край Неба (3:37)
      03. Струна (3:25)
      04. Поки жива любов (4:09)
      05. Ти сподобалася мені (3:43)
      06. Ти лиш одна (3:57)
      07. Врятуй Мене (S.O.S.) (4:08)
      08. Небезпечна (3:16)
      09. Веснарешті (4:01)
      10. Wrong (3:53)
      11. High Time To See Ukraine (bonus track) (3:27)
      12. Відпускай (bonus track) (3:51)
      13. Тут і тепер (Teraz i Tu) (bonus track) (3:52)
      14. Берег Ріки (bonus track) (4:28)
      15. Час для добра (bonus track) (3:27)

    Тривалість: 00:58:06
    Лог:
    Exact Audio Copy V1.0 beta 3 from 29. August 2011

    EAC extraction logfile from 18. May 2014, 14:22

    С.К.А.Й. / Край Неба

    Used drive : ATAPI iHAS124 B Adapter: 4 ID: 0

    Read mode : Secure
    Utilize accurate stream : Yes
    Defeat audio cache : Yes
    Make use of C2 pointers : No

    Read offset correction : 6
    Overread into Lead-In and Lead-Out : No
    Fill up missing offset samples with silence : Yes
    Delete leading and trailing silent blocks : No
    Null samples used in CRC calculations : Yes
    Used interface : Native Win32 interface for Win NT & 2000

    Used output format : Internal WAV Routines
    Sample format : 44.100 Hz; 16 Bit; Stereo

    TOC of the extracted CD

    Track | Start | Length | Start sector | End sector
    ---------------------------------------------------------
    1 | 0:00.00 | 4:49.71 | 0 | 21745
    2 | 4:49.71 | 3:38.34 | 21746 | 38129
    3 | 8:28.30 | 3:25.00 | 38130 | 53504
    4 | 11:53.30 | 4:10.10 | 53505 | 72264
    5 | 16:03.40 | 3:43.73 | 72265 | 89062
    6 | 19:47.38 | 3:58.09 | 89063 | 106921
    7 | 23:45.47 | 4:09.08 | 106922 | 125604
    8 | 27:54.55 | 3:17.08 | 125605 | 140387
    9 | 31:11.63 | 4:02.13 | 140388 | 158550
    10 | 35:14.01 | 3:54.03 | 158551 | 176103
    11 | 39:08.04 | 3:28.12 | 176104 | 191715
    12 | 42:36.16 | 3:51.74 | 191716 | 209114
    13 | 46:28.15 | 3:48.01 | 209115 | 226215
    14 | 50:16.16 | 4:27.63 | 226216 | 246303
    15 | 54:44.04 | 3:42.39 | 246304 | 262992

    Range status and errors

    Selected range

    Filename I:\Українська музика\С.К.А.Й - Дискография (lossless)\2014 - Край Неба\2014 - Край Неба.wav

    Peak level 100.0 %
    Extraction speed 5.8 X
    Range quality 99.9 %
    Test CRC 7D541706
    Copy CRC 7D541706
    Copy OK

    No errors occurred

    AccurateRip summary

    Track 1 not present in database
    Track 2 not present in database
    Track 3 not present in database
    Track 4 not present in database
    Track 5 not present in database
    Track 6 not present in database
    Track 7 not present in database
    Track 8 not present in database
    Track 9 not present in database
    Track 10 not present in database
    Track 11 not present in database
    Track 12 not present in database
    Track 13 not present in database
    Track 14 not present in database
    Track 15 not present in database

    None of the tracks are present in the AccurateRip database

    End of status report

    ---- CUETools DB Plugin V2.1.3

    [CTDB TOCID: LEcQSTcfgz8i27kj9y9Vv5UiCFY-] disk not present in database, Submit result: LEcQSTcfgz8i27kj9y9Vv5UiCFY- has been uploaded

    ==== Log checksum 3AEB529F619F9F0AEF5E306F7ABB5D87585239977EA5F6AF637FBCEAA4C791DE ====


Загальна тривалість: 05:05:52
Мова: українська
Аудіо-кодек: FLAC
Бітрейт: ~965 кб/с
Джерело: Власний ріп
Додаткова інформація:
«С.К.А.Й.» — український музичний гурт. Групу засновано 2001 року у Тернополі. Колектив випустив три студійні альбоми, побував у гастрольному турне по містах України, Росії, Білорусі. С.К.А.Й. взяв участь у таких фестивалях як Перлини сезону, Таврійські ігри, Червона рута (третя премія у галузі рок-музики). У 2008 році С.К.А.Й. провів всеукраїнський тур спільно з гуртом MLLM. Гурт входить до низки найпопулярніших рокових гуртів в українському шоу-бізнесі.


Якщо Ви справді бажаєте підтримати українське - після прослуховування, якщо музика вам сподобалась, придбайте ліцензійний диск. Підтримаймо вітчизняних виконавців!


Золотий реліз (завантажене не впливає на рейтинг)
 Трекер:    Зареєстрований   

Завантажити / скачати українську музику



відео для новачків



 Зареєстрований:   2014-07-03 07:52
 Розмір:   2.77 GB 
 Оцінка музики:   9.9/10 (Голосів: 24)
   
madd 
Новенький


З нами з: 08.04.14
Востаннє: 16.11.16
Повідомлень: 2

2014-06-12 20:03  
"Джерело: CD"
Власний ріп?

vamp69 
Поважний учасник


З нами з: 06.07.09
Востаннє: 09.12.16
Повідомлень: 173

2014-06-14 07:57  
madd так
ssTAss 
Модератор музики


З нами з: 05.07.08
Востаннє: 10.12.16
Повідомлень: 10953

2014-06-28 18:01  
взагалі то, дискографія СКАЙ вже є на Толоці і при створенні нової (з більшою кількістю альбомів) треба якось узгоджувати з автором попереднього релізу
але для Вас, думаю, можна зробити виняток з неписаних правил, бо
vamp69 написано:
Джерело: Власний ріп

і ріпи правильні, повні

але тоді попрошу Вас додати до перших двох альбомів відео (з оформленням можу допомогти), яке було на дисках
і вкажіть загальну тривалість

vamp69 
Поважний учасник


З нами з: 06.07.09
Востаннє: 09.12.16
Повідомлень: 173

2014-07-01 09:31  
Добре додам Happy не знав чи можна його додавати
vamp69 
Поважний учасник


З нами з: 06.07.09
Востаннє: 09.12.16
Повідомлень: 173

2014-07-03 07:53  
все зробив
ssTAss 
Модератор музики


З нами з: 05.07.08
Востаннє: 10.12.16
Повідомлень: 10953

2014-07-03 17:01  
vamp69 написано:
все зробив

вже не буду Вас мучити
обіцяв допомогти з оформленням відео - зроблю згодом, поправлю дані і додам скріншоти

famous37 
Відео Гуртом - фільмокрай
Відео Гуртом - фільмокрай


З нами з: 16.11.08
Востаннє: 10.12.16
Повідомлень: 554

2014-09-13 12:07  
Гарний гурт. Звучання чимось нагадує 30 Seconds To Mars. Вам теж так здається?
Great Dragon 
Частий відвідувач


З нами з: 26.01.13
Востаннє: 03.12.16
Повідомлень: 29

2015-03-14 03:43  
Щоб нормально послухати потреково потрібно в CUE файлі переіменувати розширення файлу з WAV на FLAC.
Але після такого торент звичайно роздавати вже не вийде.
Якось можна це пофіксити по нормальному?

civ 
VIP


З нами з: 16.02.11
Востаннє: 10.12.16
Повідомлень: 429

2015-03-14 10:12  
Зробити копію CUE-файлу, виправити її та вкидати у плеєр саме цей файл...
merlin_zaraza 
Свій


З нами з: 20.06.09
Востаннє: 09.12.16
Повідомлень: 124

2015-07-27 14:35  
виправте CUE файли і видаліть непотрібний 2006 - Те Що Треба/2006 - Те Що Треба.wav файл
Ваш часовий пояс: GMT + 2 Години

Нова тема   Відповісти