Завантажити та скачати торренти українською


Суперзірка / Суперстар / Superstar (2012) AVC 2xUkr/Fre

Нові коментарі

Нова тема   Відповісти
Автор Повідомлення
Anonymous 







2014-05-21 08:51  
Суперзірка / Суперстар / Superstar (2012) AVC 2xUkr/Fre



Жанр: драма, комедія
Країна: Франція, Бельгія



Кінокомпанія: Rectangle Productions, Wild Bunch, Studio 37, France 3 Cinéma, Scope Pictures
Режисер: Ксав'єр Ґіанолі / Xavier Giannoli
Актори: Кад Мерад / Kad Merad, Сесіль Де Франс / Cécile De France, Луі-До де Ланкесе / Louis-Do de Lencquesaing, Седрік Бен Абдулла / Cédric Ben Abdallah, Альберто Сорбеллі / Alberto Sorbelli, Фредерік Буаморо / Frédéric Boismoreau, П'єр Діот / Pierre Diot, Крістоф Куротчкін / Christophe Kourotchkine, Стефан Войтович / Stéphan Wojtowicz, Ґарба Тункара / Garba Tounkara

Сюжет:
В один дивний день простий пересічний, маленький-премаленькій, "банальний" холостяк, що працює в конторі по утилізації комп'ютерів, - раптом безпричинно стає знаменитістю: з месьє Казінскі мріє сфотографуватися кожен зустрічний, YouTube лопається від роликів з його участю, сам же "суперстар мимоволі" божеволіє від популярності, яка звалилася йому не інакше, як з неба ...


Підпільна імперія


Вікова категорія: 12+

Тривалість: 01:52:48
Якість: AVC
Відео:
кодек:
розмір кадру: 1024 x 436
бітрейт: 1805 кбіт/с

Аудіо # 1:
мова: українська
переклад: багатоголосий закадровий
кодек: 5.1
бітрейт: 384 кбіт/с
Інформація про озвучення
Переклад: Анастасії Тихонової
Режисер: Катерина Брайковська
Звукорежисер: Анна Малієнко
Ролі озвучили: Матвій Ніколаєв, Тетяна Зіновенко, Андрій Федінчик і Катерина Брайковська

Фільм перекладено і озвучено студією ТВ+ на замовлення УМС
Аудіо # 2:
мова: українська
переклад: багатоголосий закадровий
кодек: 2.0
бітрейт: 192 кбіт/с

Аудіо # 3:
мова: французька
переклад: оригінал
кодек: 5.1
бітрейт: 448 кбіт/с
MediaInfo
Код:
General
Unique ID                                : 225904579514534688290838285508194249917 (0xA9F3A3B16E36F3618EEB7EAAC38EACBD)
Complete name                            : Superstar (2012) [2xUkr,Fre] AVC [Hurtom].mkv
Format                                   : Matroska
Format version                           : Version 4 / Version 2
File size                                : 2.27 GiB
Duration                                 : 1h 52mn
Overall bit rate mode                    : Variable
Overall bit rate                         : 2 887 Kbps
Movie name                               : Суперзірка / Суперстар / Superstar (2012) AVC [Hurtom]
Encoded date                             : UTC 2014-05-21 15:13:45
Writing application                      : mkvmerge v6.9.1 ('Blue Panther') 64bit built on Apr 18 2014 18:23:38
Writing library                          : libebml v1.3.0 + libmatroska v1.4.1

Video
ID                                       : 1
Format                                   : AVC
Format/Info                              : Advanced Video Codec
Format profile                           : [email protected]
Format settings, CABAC                   : No
Format settings, ReFrames                : 1 frame
Format settings, GOP                     : M=1, N=12
Codec ID                                 : V_MPEG4/ISO/AVC
Duration                                 : 1h 52mn
Bit rate mode                            : Variable
Bit rate                                 : 1 805 Kbps
Maximum bit rate                         : 2 790 Kbps
Width                                    : 1 024 pixels
Height                                   : 436 pixels
Display aspect ratio                     : 2.35:1
Original display aspect ratio            : 2.35:1
Frame rate mode                          : Constant
Frame rate                               : 23.976 fps
Original frame rate                      : 24.000 fps
Color space                              : YUV
Chroma subsampling                       : 4:2:0
Bit depth                                : 8 bits
Scan type                                : Progressive
Bits/(Pixel*Frame)                       : 0.169
Stream size                              : 1.42 GiB (63%)
Title                                    : Суперзірка / Суперстар / Superstar (2012) AVC
Language                                 : English
Default                                  : Yes
Forced                                   : No

Audio #1
ID                                       : 2
Format                                   : AC-3
Format/Info                              : Audio Coding 3
Mode extension                           : CM (complete main)
Format settings, Endianness              : Big
Codec ID                                 : A_AC3
Duration                                 : 1h 52mn
Bit rate mode                            : Constant
Bit rate                                 : 384 Kbps
Channel(s)                               : 6 channels
Channel positions                        : Front: L C R, Side: L R, LFE
Sampling rate                            : 48.0 KHz
Bit depth                                : 16 bits
Compression mode                         : Lossy
Stream size                              : 310 MiB (13%)
Title                                    : MVO [TV+, UMS] 5.1 384 Kbps [Hurtom-karvai0]
Language                                 : Ukrainian
Default                                  : Yes
Forced                                   : Yes

Audio #2
ID                                       : 3
Format                                   : AC-3
Format/Info                              : Audio Coding 3
Mode extension                           : CM (complete main)
Format settings, Endianness              : Big
Codec ID                                 : A_AC3
Duration                                 : 1h 52mn
Bit rate mode                            : Constant
Bit rate                                 : 192 Kbps
Channel(s)                               : 2 channels
Channel positions                        : Front: L R
Sampling rate                            : 48.0 KHz
Bit depth                                : 16 bits
Compression mode                         : Lossy
Stream size                              : 155 MiB (7%)
Title                                    : MVO [1+1] 2.0 192 Kbps [Hurtom-karvai0]
Language                                 : Ukrainian
Default                                  : No
Forced                                   : No

Audio #3
ID                                       : 4
Format                                   : AC-3
Format/Info                              : Audio Coding 3
Mode extension                           : CM (complete main)
Format settings, Endianness              : Big
Codec ID                                 : A_AC3
Duration                                 : 1h 52mn
Bit rate mode                            : Constant
Bit rate                                 : 448 Kbps
Channel(s)                               : 6 channels
Channel positions                        : Front: L C R, Side: L R, LFE
Sampling rate                            : 48.0 KHz
Bit depth                                : 16 bits
Compression mode                         : Lossy
Stream size                              : 361 MiB (16%)
Title                                    : Original 5.1 448 Kbps
Language                                 : French
Default                                  : No
Forced                                   : No




Джерела та подяки: &
ріп відео, оригінальний звук - рутор; українські доріжки - karvai0 - зведення, OlegCena, POMEO, Vasua95- запис з ТБ доріжки від 1+1 (всі - Гуртом); український постер - офіційний.


ЗАЛИШАЙТЕСЬ ЯКОМОГА ДОВШЕ НА РОЗДАЧІ!

СКАЧАВ САМ - ДАЙ СКАЧАТИ ІНШИМ


 Трекер:    Зареєстрований   

Завантажити / скачати фільм українською



відео для новачків



 Зареєстрований:   2014-05-21 17:31
 Розмір:   2.27 GB 
 Оцінка фільму:   3.4/10 (Голосів: 15)
   
Інші релізи
bot 
робот


З нами з: 30.09.07
Востаннє: 26.05.05
Повідомлень: 16030

2014-05-21 08:51  
Тему перенесено з Фільми до форуму Анонси релізів


igor911

Anonymous 







2014-05-21 08:53  
Реліз орієнтовно о 16.00
bot 
робот


З нами з: 30.09.07
Востаннє: 26.05.05
Повідомлень: 16030

2014-05-21 17:31  
Тему перенесено з Анонси релізів до форуму Фільми


igor911

Kundo 
Частий відвідувач


З нами з: 01.02.12
Востаннє: 07.12.16
Повідомлень: 46

2014-05-25 10:49  
як кіно?
Anonymous 







2014-05-25 10:59  
Kundo написано:
як кіно?

Я не дивився, кілька відгуків можеш прочитати тут - http://toloka.to/t54458 + є під спойлером в шапці "Підпільна імперія".

bereh 
Свій


З нами з: 30.04.09
Востаннє: 04.12.16
Повідомлень: 53

2014-05-30 22:18  
Kundo
Мені дуже сподобалось!

Ваш часовий пояс: GMT + 2 Години

Нова тема   Відповісти