Завантажити та скачати торренти українською


Робокоп / RoboCop (2014) 720p-mini

Нові коментарі

Нова тема   Відповісти
Автор Повідомлення
Drool 
VIP


З нами з: 17.04.10
Востаннє: 05.12.16
Повідомлень: 1262

2014-05-18 21:53  
Робокоп / RoboCop (2014) 720p-mini

Жанр: фантастика, бойовик, кримінальний
Країна: США



Кінокомпанія: Columbia Pictures 2. Metro-Goldwyn-Mayer (MGM) 3. Strike Entertainment
Режисер: Жозе Паділья
Актори: Юель Кіннаман, Джей Барушель, Семюел Л. Джексон, Гарі Олдман, Еббі Корніш, Майкл Кітон, Джекі Ерл Хейлі, Аймі Гарсіа, Дженніфер Ілі, Майкл К. Уільямс та інші.

Сюжет:
Алекс Мерфі - люблячий чоловік, батько, і просто хороший поліцейський. Він бореться зі злочинністю, що аж кишить у Детройті. Після нещасного випадку, «Омнікорп» задіює його органи в роботехнічному експерименті і перетворює чоловіка на супергероя - Робокопа. Його мета - охорона правопорядку і боротьба зі злочинністю.


Тривалість: 01:57:29
Якість: 720p
Відео:
кодек:
розмір кадру: 1280x534
бітрейт: 2603 кб/с

Аудіо:
мова: українська
переклад: професійний дубльований
кодек: 5.1
бітрейт: 448 кб/с

Джерело озвучення:


Субтитри:
мова: українська (форсовані)
тип: програмні (м'які)
формат: *.srt
MediaInfo
General
Unique ID : 111641507275860193819283547093722528700 (0x53FD5F47D68554C572182A1E85F8FBBC)
Complete name : /mnt/disk_d/Video/RoboCop.2014.Ukr.Dub..720p-mini.UAGet.mkv
Format : Matroska
Format version : Version 2
File size : 2.51 GiB
Duration : 1h 57mn
Overall bit rate : 3 056 Kbps
Writing application : HandBrake rev0
Writing library : libmkv 0.6.5
TITLE : Робокоп / RoboCop (2014) 720p-min -=UAGet=-
ARTIST : Юель Кіннаман, Джей Барушель, Семюел Л. Джексон, Гарі Олдман, Еббі Корніш та ін.
DIRECTOR : Жозе Паділья
DATE_RELEASED : 2014
GENRE : фантастика, бойовик, кримінальний

Video
ID : 1
Format : AVC
Format/Info : Advanced Video Codec
Format profile : [email protected]
Format settings, CABAC : Yes
Format settings, ReFrames : 7 frames
Codec ID : V_MPEG4/ISO/AVC
Duration : 1h 57mn
Bit rate : 2 603 Kbps
Width : 1 280 pixels
Height : 534 pixels
Display aspect ratio : 2.40:1
Frame rate : 23.976 fps
Color space : YUV
Chroma subsampling : 4:2:0
Bit depth : 8 bits
Scan type : Progressive
Bits/(Pixel*Frame) : 0.159
Stream size : 2.09 GiB (83%)
Writing library : core 142 r2389 956c8d8
Encoding settings : cabac=1 / ref=8 / deblock=1:-3:-3 / analyse=0x3:0x133 / me=umh / subme=11 / psy=1 / psy_rd=1,10:0,20 / mixed_ref=1 / me_range=32 / chroma_me=1 / trellis=2 / 8x8dct=1 / cqm=0 / deadzone=21,11 / fast_pskip=0 / chroma_qp_offset=-3 / threads=6 / lookahead_threads=1 / sliced_threads=0 / nr=0 / decimate=1 / interlaced=0 / bluray_compat=0 / constrained_intra=0 / bframes=8 / b_pyramid=1 / b_adapt=2 / b_bias=0 / direct=3 / weightb=1 / open_gop=0 / weightp=2 / keyint=240 / keyint_min=24 / scenecut=40 / intra_refresh=0 / rc=2pass / mbtree=0 / bitrate=2603 / ratetol=1,0 / qcomp=1,00 / qpmin=0 / qpmax=69 / qpstep=4 / cplxblur=20,0 / qblur=0,5 / ip_ratio=1,40 / pb_ratio=1,30 / aq=2:0,60
Language : English
Default : Yes
Forced : No
Color primaries : BT.709-5, BT.1361, IEC 61966-2-4, SMPTE RP177
Transfer characteristics : BT.709-5, BT.1361
Matrix coefficients : BT.709-5, BT.1361, IEC 61966-2-4 709, SMPTE RP177

Audio
ID : 2
Format : AC-3
Format/Info : Audio Coding 3
Mode extension : CM (complete main)
Codec ID : A_AC3
Duration : 1h 57mn
Bit rate mode : Constant
Bit rate : 448 Kbps
Channel(s) : 6 channels
Channel positions : Front: L C R, Side: L R, LFE
Sampling rate : 48.0 KHz
Bit depth : 16 bits
Compression mode : Lossy
Stream size : 376 MiB (15%)
Language : Ukrainian
Default : Yes
Forced : No

Text
ID : 3
Format : UTF-8
Codec ID : S_TEXT/UTF8
Codec ID/Info : UTF-8 Plain Text
Language : Ukrainian
Default : Yes
Forced : No
Скріншоти




Реліз від:
Особиста оцінка: 8 - мені сподобалося


 Трекер:    Зареєстрований   

Завантажити / скачати фільм українською



відео для новачків



 Зареєстрований:   2014-05-20 17:20
 Розмір:   2.51 GB 
 Оцінка фільму:   8.8/10 (Голосів: 32)
   
Інші релізи
   Робокоп / RoboCop (2014) DVD5 Quasar  0 / 0   4.36 GB   2014-11-02 10:49 
   Робокоп / RoboCop (2014) 1080p H.265 Ukr/Eng | Sub Ukr/Eng Tenax555  2 / 0   7.19 GB   2014-09-22 21:09 
   Робокоп / RoboCop (2014) Blu-ray CEE Multi | Sub Multi smak2001  0 / 0   37.86 GB   2014-05-18 19:48 
   Робокоп / RoboCop (2014) AVC | sub Ukr/Eng kino.  5 / 0   1.81 GB   2014-05-18 09:59 
   Робокоп / RoboCop (2014) 1080p Ukr/Eng | Sub Ukr/Eng 11FrYkT  3 / 0   13.49 GB   2014-05-18 09:38 
   Робокоп / RoboCop (2014) 720p Ukr/Eng | Sub Ukr/Eng kino.  5 / 0   6.56 GB   2014-05-17 13:58 
   Робокоп / RoboCop (2014) Ukr/Eng | Sub Ukr/Eng AngryBirdsUA  10 / 0   2.19 GB   2014-05-17 11:52 
bot 
робот


З нами з: 30.09.07
Востаннє: 26.05.05
Повідомлень: 15990

2014-05-18 21:53  
Тему перенесено з Фільми в HD до форуму Анонси релізів


Drool

Drool 
VIP


З нами з: 17.04.10
Востаннє: 05.12.16
Повідомлень: 1262

2014-05-18 21:54  
Реліз орієнтовно вівторок-середа.
380966057693 
Свій


З нами з: 15.01.14
Востаннє: 05.12.16
Повідомлень: 92

2014-05-20 16:26  
фільм норм, але оригінал набагато кращий
bot 
робот


З нами з: 30.09.07
Востаннє: 26.05.05
Повідомлень: 15990

2014-05-20 17:20  
Тему перенесено з Анонси релізів до форуму Фільми в HD


Drool

Andrew1999 
Новенький


З нами з: 18.03.14
Востаннє: 04.12.16
Повідомлень: 7

2014-05-31 12:54  
Дякую, за фільм
slavikl0709 
Новенький


З нами з: 02.06.14
Востаннє: 16.12.14
Повідомлень: 2

2014-06-02 18:35  
Andrew1999 написано:
Дякую, за фільм

Приєднуюсь

Maters 
VIP


З нами з: 27.03.12
Востаннє: 05.12.16
Повідомлень: 1159

2014-08-10 10:43  
непоганий, дивитись цікаво було))
Ваш часовий пояс: GMT + 2 Години

Нова тема   Відповісти