Завантажити та скачати торренти українською


Веремій - Вільна земля (2014) [FLAC] | Folk Rock

Нові коментарі

Нова тема   Відповісти
Останній раз роздавалося vgai (2016-12-06)
Автор Повідомлення
vamp69 
Поважний учасник


З нами з: 06.07.09
Востаннє: 30.11.16
Повідомлень: 173

2014-05-18 13:14  
Веремій - Вільна земля (2014) [FLAC] | Folk Rock

Веремій - Вільна земля (2014) [FLAC] | Folk Rock


Стиль: Folk Rock
Країна, місто: Україна, Київ
Сайти: Офіційний сайт
Видавець: Lavina Music
Виконавці:
Віталій Калініченко — вокал, акустична гітара
Олександр Селюк — барабани
Павло Попроцький — флейта/сопілка
Денис Бойко — гітара
Дмитро Романець — бас
Ігор Владимиров — гітара
Тетяна Дубченко — скрипка
Пісні:
    1. Гуляйполе 3:24
    2. Полети 4:13
    3. Йди на зорі 3:15
    4. Настане той день 3:50
    5. Питається вітер в смерти 3:53
    6. Сповідь розстріляних душ 5:36
    7. Гартовані вогнем 3:33
    8. Ой тихо, верба, гнешся 5:12
    9. Не питай, коли прийде весна 3:31
    10. Чорний шлях 6:03

Тривалість: 00:42:15
Мова: українська
Аудіо-кодек: FLAC
Бітрейт: 965 кб/с
Джерело: CD
"log:"
Exact Audio Copy V1.0 beta 3 from 29. August 2011

EAC extraction logfile from 18. May 2014, 13:27

Веремій / Вільна земля

Used drive : ATAPI iHAS124 B Adapter: 4 ID: 0

Read mode : Secure
Utilize accurate stream : Yes
Defeat audio cache : Yes
Make use of C2 pointers : No

Read offset correction : 6
Overread into Lead-In and Lead-Out : No
Fill up missing offset samples with silence : Yes
Delete leading and trailing silent blocks : No
Null samples used in CRC calculations : Yes
Used interface : Native Win32 interface for Win NT & 2000

Used output format : Internal WAV Routines
Sample format : 44.100 Hz; 16 Bit; Stereo

TOC of the extracted CD

Track | Start | Length | Start sector | End sector
---------------------------------------------------------
1 | 0:00.00 | 3:24.06 | 0 | 15305
2 | 3:24.06 | 4:13.54 | 15306 | 34334
3 | 7:37.60 | 3:15.70 | 34335 | 49029
4 | 10:53.55 | 3:50.24 | 49030 | 66303
5 | 14:44.04 | 3:53.27 | 66304 | 83805
6 | 18:37.31 | 5:36.00 | 83806 | 109005
7 | 24:13.31 | 3:33.28 | 109006 | 125008
8 | 27:46.59 | 5:12.50 | 125009 | 148458
9 | 32:59.34 | 3:31.16 | 148459 | 164299
10 | 36:30.50 | 6:03.11 | 164300 | 191535

Range status and errors

Selected range

Filename I:\Українська музика\Веремій - Вільна земля (2014)\Веремій - Вільна земля (2014).wav

Peak level 100.0 %
Extraction speed 5.4 X
Range quality 100.0 %
Test CRC 136E7534
Copy CRC 136E7534
Copy OK

No errors occurred

AccurateRip summary

Track 1 not present in database
Track 2 not present in database
Track 3 not present in database
Track 4 not present in database
Track 5 not present in database
Track 6 not present in database
Track 7 not present in database
Track 8 not present in database
Track 9 not present in database
Track 10 not present in database

None of the tracks are present in the AccurateRip database

End of status report

---- CUETools DB Plugin V2.1.3

[CTDB TOCID: ..vz_3MoiuMyobLKd3DpRWF5JgU-] disk not present in database, Submit result: ..vz_3MoiuMyobLKd3DpRWF5JgU- has been uploaded

==== Log checksum E37711AD3F970702C5C43EF7412B9542439CBB1D5D2BDF8775A5F6F3285E5563 ====
Якщо Ви справді бажаєте підтримати українське - після прослуховування, якщо музика вам сподобалась, придбайте ліцензійний диск. Підтримаймо вітчизняних виконавців!


Срібний реліз (на рейтинг впливає 50% завантаженого)
 Трекер:    Зареєстрований   

Завантажити / скачати українську музику



відео для новачків



 Зареєстрований:   2014-05-18 13:14
 Розмір:   310 MB 
 Оцінка музики:   10/10 (Голосів: 12)
   
vamp69 
Поважний учасник


З нами з: 06.07.09
Востаннє: 30.11.16
Повідомлень: 173

2014-05-18 13:18  
перекиньте в РОК
Pinguin 
Поважний учасник


З нами з: 08.04.12
Востаннє: 05.12.16
Повідомлень: 190

2014-05-18 13:22  
МР3 буде?
vamp69 
Поважний учасник


З нами з: 06.07.09
Востаннє: 30.11.16
Повідомлень: 173

2014-05-18 13:26  
Ну можу зробити, якщо потрібно
Pinguin 
Поважний учасник


З нами з: 08.04.12
Востаннє: 05.12.16
Повідомлень: 190

2014-05-18 13:30  
vamp69 зробіть будь ласка. дякую наперед)))
bot 
робот


З нами з: 30.09.07
Востаннє: 26.05.05
Повідомлень: 16002

2014-05-18 14:02  
Тему перенесено з Поп, Естрада до форуму Рок, Метал, Альтернатива, Панк, СКА


ssTAss

Ваш часовий пояс: GMT + 2 Години

Нова тема   Відповісти