Завантажити та скачати торренти українською


Білявка з амбіціями / Блондинка з амбіціями / Blonde Ambition (2007) 720p 2xUkr/Eng | sub Eng

Нові коментарі

Нова тема   Відповісти
Автор Повідомлення
Anonymous 







2014-05-16 22:57  
Білявка з амбіціями / Блондинка з амбіціями / Blonde Ambition (2007) 720p 2xUkr/Eng | sub Eng



Українізований постер



Жанр: мелодрама, комедія
Країна: США



Кінокомпанія: Millennium Films, Papa Joe Films
Режисер: Скотт Маршалл / Scott Marshall
Актори: Джессіка Сімпсон / Jessica Simpson, Люк Вілсон / Luke Wilson, Рейчел Лі Кук / Rachael Leigh Cook, Пенелопа Енн Міллер / Penelope Ann Miller, Енді Дік / Andy Dick, Дрю Фуллер / Drew Fuller, Ларрі Міллер / Larry Miller та інші

Сюжет:
Дівчина з маленького містечка приїздить до Нью-Йорка, щоб побачити і здивувати свого нареченого і застає його в ліжку з іншою. Щоб не повертатись додому з такою новиною і не зустрічатись зі своїми рідними, вона залишається у місті. Влаштовується на роботу у велику компанію і розуміє, що потрапила в самий розпал корпоративної війни, в якій жінка намагається відібрати контроль над компанією у свого колишнього чоловіка.



Рейтинг MPAA: PG-13 - дітям до 13 років перегляд не бажаний
Вікова категорія: 12+


Тривалість: 01:32:35
Якість: 720p
Відео:
кодек:
розмір кадру: 1280x688
бітрейт: 5250 кбіт/с

Аудіо # 1:
мова: українська
переклад: двоголосий закадровий
кодек: 2.0
бітрейт: 192 кбіт/с

Аудіо # 2:
мова: українська
переклад: двоголосий закадровий
кодек: 2.0
бітрейт: 192 кбіт/с
Зауваження
У доріжці від 1+1 епізод після титрів не транслювався, тому він замінений озвучкою Нового канала. (прим. taraskill1)
Аудіо # 3:
мова: англійська
переклад: оригінал
кодек: 5.1
бітрейт: 1536 кбіт/с

Субтитри:
мова: англійська
тип: програмні (м'які)
формат: *.srt
MediaInfo
Код:
General
Unique ID                                : 201826389134916611021324776279593034129 (0x97D659407CC20D34A5501B3A0FB1A191)
Complete name                            : Blonde Ambition (2007) [2xUkr,Eng sub.Eng] 720p [Hurtom].mkv
Format                                   : Matroska
Format version                           : Version 4 / Version 2
File size                                : 4.62 GiB
Duration                                 : 1h 32mn
Overall bit rate                         : 7 145 Kbps
Movie name                               : Білявка з амбіціями / Блондинка з амбіціями / Blonde Ambition (2007) 720p [Hurtom]
Encoded date                             : UTC 2014-05-16 18:54:09
Writing application                      : mkvmerge v6.9.1 ('Blue Panther') 64bit built on Apr 18 2014 18:23:38
Writing library                          : libebml v1.3.0 + libmatroska v1.4.1

Video
ID                                       : 1
Format                                   : AVC
Format/Info                              : Advanced Video Codec
Format profile                           : [email protected]
Format settings, CABAC                   : Yes
Format settings, ReFrames                : 5 frames
Codec ID                                 : V_MPEG4/ISO/AVC
Duration                                 : 1h 32mn
Bit rate                                 : 5 250 Kbps
Width                                    : 1 280 pixels
Height                                   : 688 pixels
Display aspect ratio                     : 1.85:1
Frame rate mode                          : Constant
Frame rate                               : 23.976 fps
Color space                              : YUV
Chroma subsampling                       : 4:2:0
Bit depth                                : 8 bits
Scan type                                : Progressive
Bits/(Pixel*Frame)                       : 0.249
Stream size                              : 3.30 GiB (72%)
Title                                    : Білявка з амбіціями / Блондинка з амбіціями / Блондинка с амбициями / Blonde Ambition (2007) 720p
Writing library                          : core 79 r1354 636f98f
Encoding settings                        : cabac=1 / ref=5 / deblock=1:0:0 / analyse=0x3:0x133 / me=umh / subme=7 / psy=1 / psy_rd=1.0:0.0 / mixed_ref=1 / me_range=16 / chroma_me=1 / trellis=1 / 8x8dct=1 / cqm=0 / deadzone=21,11 / chroma_qp_offset=-2 / threads=6 / nr=0 / decimate=1 / mbaff=0 / constrained_intra=0 / bframes=3 / b_pyramid=0 / b_adapt=1 / b_bias=0 / direct=1 / wpredb=1 / wpredp=2 / keyint=250 / keyint_min=25 / scenecut=40 / rc_lookahead=40 / rc=2pass / mbtree=1 / bitrate=5250 / ratetol=1.0 / qcomp=0.60 / qpmin=10 / qpmax=51 / qpstep=4 / cplxblur=20.0 / qblur=0.5 / ip_ratio=1.40 / aq=1:1.00
Language                                 : English
Default                                  : Yes
Forced                                   : No

Audio #1
ID                                       : 2
Format                                   : AC-3
Format/Info                              : Audio Coding 3
Mode extension                           : CM (complete main)
Format settings, Endianness              : Big
Codec ID                                 : A_AC3
Duration                                 : 1h 32mn
Bit rate mode                            : Constant
Bit rate                                 : 192 Kbps
Channel(s)                               : 2 channels
Channel positions                        : Front: L R
Sampling rate                            : 48.0 KHz
Bit depth                                : 16 bits
Compression mode                         : Lossy
Stream size                              : 127 MiB (3%)
Title                                    : DVO [Novyj] 2.0 192 Kbps [Hurtom-taraskill1]
Language                                 : Ukrainian
Default                                  : Yes
Forced                                   : Yes

Audio #2
ID                                       : 3
Format                                   : AC-3
Format/Info                              : Audio Coding 3
Mode extension                           : CM (complete main)
Format settings, Endianness              : Big
Codec ID                                 : A_AC3
Duration                                 : 1h 32mn
Bit rate mode                            : Constant
Bit rate                                 : 192 Kbps
Channel(s)                               : 2 channels
Channel positions                        : Front: L R
Sampling rate                            : 48.0 KHz
Bit depth                                : 16 bits
Compression mode                         : Lossy
Stream size                              : 127 MiB (3%)
Title                                    : DVO [1+1] 2.0 192 Kbps [Hurtom-taraskill1]
Language                                 : Ukrainian
Default                                  : No
Forced                                   : No

Audio #3
ID                                       : 4
Format                                   :
Format/Info                              : Digital Theater Systems
Mode                                     : 16
Format settings, Endianness              : Big
Codec ID                                 : A_DTS
Duration                                 : 1h 32mn
Bit rate mode                            : Constant
Bit rate                                 : 1 509 Kbps
Channel(s)                               : 6 channels
Channel positions                        : Front: L C R, Side: L R, LFE
Sampling rate                            : 48.0 KHz
Bit depth                                : 16 bits
Compression mode                         : Lossy
Stream size                              : 999 MiB (21%)
Title                                    : Original 5.1 1536 Kbps
Language                                 : English
Default                                  : No
Forced                                   : No

Text
ID                                       : 5
Format                                   : UTF-8
Codec ID                                 : S_TEXT/UTF8
Codec ID/Info                            : UTF-8 Plain Text
Title                                    : Eng full
Language                                 : English
Default                                  : No
Forced                                   : No




Джерела та подяки: &
ріп відео, оригінальні звук та субтитри - ARiGOLD; українські доріжки - taraskill1, РОМЕО, karvai0; український постер - Givi_мол. (всі - Гуртом).


ЗАЛИШАЙТЕСЬ ЯКОМОГА ДОВШЕ НА РОЗДАЧІ!

СКАЧАВ САМ - ДАЙ СКАЧАТИ ІНШИМ


 Трекер:    Зареєстрований   

Завантажити / скачати фільм українською



відео для новачків



 Зареєстрований:   2014-05-16 22:57
 Розмір:   4.62 GB 
 Оцінка фільму:   2.5/10 (Голосів: 13)
   
Ваш часовий пояс: GMT + 2 Години

Нова тема   Відповісти