Завантажити та скачати торренти українською


Леся Волянська (Lesya Wolanskyj) - Леся (1985) [FLAC, Vinyl Rip] | Neo Folk / Pop

Нові коментарі

Нова тема   Відповісти
Автор Повідомлення
Gienek_Lwow 
VIP


З нами з: 28.09.10
Востаннє: 05.12.16
Повідомлень: 541

2014-05-16 18:54  
Леся Волянська (Lesya Wolanskyj) - Леся (1985) [FLAC, Vinyl Rip] | Neo Folk / Pop



Стиль: Neo Folk, Pop, Ethno
Країна: Канада
Видавець: Yevshan YVP 1039
Виконавці:
Lesya Wolanskyj (вокал, бек-вокал); Andrij Cherny (акордеон, клавішні); Marko Bednarczyk (акустична гітара); Bill Kinal (бас, акустична гітара 1)
Roman Kostyk (бек-вокал 2); Ronnie Kalanitch 4, Peter M 3, Rodney McLellan & Alfi Dibouno 6 (ударні); Bill Kinal 7, Ronie Kolanitch 8 (перкусія); Glen Robinson (соло гітара 10 і кастаньєти)

Пісні:
    А1 Якщо любиш-кохай
    А2 Червоная калинонька
    А3 Тихо над річкою
    А4 Ой ти річенько
    А5 Іхав стрілець на війноньку
    В1 Твої очі
    В2 Ой ти дівчино зарученая
    В3 Ти питаєш, чи кохаю
    В4 Летів пташок
    В5 Ой губочки опенечки
    В6 Кохання-квітка природи

Тривалість: 00:39:29
Мова: українська
Аудіо-кодек: FLAC
Бітрейт: 2633 кб/с
Джерело: платівка dvorsky, ріп Gienek_Lwow
Додаткова інформація:
Spectr
Леся Волянська (Lesya Wolanskyj) - Леся (1985) [FLAC, Vinyl Rip] | Neo Folk / Pop
Foobar Dynamic Range

foobar2000 1.2.6 / Измерение динамического диапазона 1.1.1
дата измерения: 2014-05-16 18:21:03

--------------------------------------------------------------------------------
Проанализировано: Lesya Wolanskyj / Леся
--------------------------------------------------------------------------------

DR Пик RMSДлина Трек
--------------------------------------------------------------------------------
DR13 -3.30 дБ -18.45 дБ 2:54 ?-А1 Якщо любиш-кохай
DR11 -4.45 дБ -19.07 дБ 3:03 ?-А2 Червоная калинонька
DR13 -4.24 дБ -21.37 дБ 3:45 ?-А3 Тихо над річкою
DR14 -4.62 дБ -20.73 дБ 2:19 ?-А4 Ой ти річенько
DR14 -4.20 дБ -20.05 дБ 5:42 ?-А5 Іхав стрілець на війноньку
DR14 -3.02 дБ -20.15 дБ 3:18 ?-В1 Твої очі
DR12 -6.41 дБ -20.77 дБ 4:01 ?-В2 Ой ти дівчино зарученая
DR14 -3.16 дБ -20.41 дБ 2:37 ?-В3 Ти питаєш, чи кохаю
DR12 -3.55 дБ -20.15 дБ 4:06 ?-В4 Летів пташок
DR14 -2.99 дБ -19.34 дБ 2:52 ?-В5 Ой губочки опенечки
DR11 -5.83 дБ -20.46 дБ 4:51 ?-В6 Кохання-квітка природи
--------------------------------------------------------------------------------

Количество треков: 11
Официальное значение DR: DR13

Частота дискретизации: 96000 Гц
Каналов: 2
Бит на сэмпл: 24
Битрейт: 2633 kbps
Кодек: FLAC
================================================================================


Срібний реліз (на рейтинг впливає 50% завантаженого)
 Трекер:    Зареєстрований   

Завантажити / скачати українську музику



відео для новачків



 Зареєстрований:   2014-05-16 20:10
 Розмір:   747 MB 
 Оцінка музики:   10/10 (Голосів: 7)
   
Форкуш 
VIP


З нами з: 03.02.10
Востаннє: 05.12.16
Повідомлень: 1536

2014-05-17 01:54  
мп3 буде?
civ 
VIP


З нами з: 16.02.11
Востаннє: 04.12.16
Повідомлень: 429

2014-05-17 06:31  
Так нібито вже давно є: http://toloka.to/t30891 Правда, було би добре його переробити.
Форкуш 
VIP


З нами з: 03.02.10
Востаннє: 05.12.16
Повідомлень: 1536

2014-05-17 08:09  
civ написано:
Правда, було би добре його переробити.

Дуже б хотілося....

Gienek_Lwow 
VIP


З нами з: 28.09.10
Востаннє: 05.12.16
Повідомлень: 541

2014-05-17 08:47  
Форкуш написано:
мп3 буде?

Форкуш написано:

civ написано:
Правда, було би добре його переробити.

Дуже б хотілося....


Леся Волянська (Lesya Wolanskyj) - Леся (1985) [MP3, Vinyl Rip] | Neo Folk / Pop

Надіюсь сподобається. Wink (2)

Форкуш 
VIP


З нами з: 03.02.10
Востаннє: 05.12.16
Повідомлень: 1536

2014-05-17 08:54  
Gienek_Lwow
Дякую щиро!

dvorsky 
Відео Гуртом - запис з ТБ
Відео Гуртом - запис з ТБ


З нами з: 20.12.07
Востаннє: 03.12.16
Повідомлень: 236

2014-05-20 19:10  
Дуже дякую!
Звук - просто бомба. Особливо сподобалась пісня мого земляка Михайла Гайворонського "Їхав стрілець на війноньку"
На жаль платівку немаю можливості прокрутити, зато тепер є в цифровому форматі.

Gienek_Lwow 
VIP


З нами з: 28.09.10
Востаннє: 05.12.16
Повідомлень: 541

2014-05-20 19:23  
dvorsky
Вдячний за платівки!
Програвач платівок, з часом придбаєш...
Наступна: Роман Когут і Буря - Буря III (1982) [FLAC, Vinyl Rip] Folk

Ваш часовий пояс: GMT + 2 Години

Нова тема   Відповісти