Завантажити та скачати торренти українською


Любовний настрій / Fa yeung nin wa / In the Mood for Love (2000) 720p Ukr/Chi | sub Eng

Нові коментарі

Нова тема   Відповісти
Автор Повідомлення
Anonymous 







2014-05-15 15:03  
Любовний настрій / Fa yeung nin wa / In the Mood for Love (2000) 720p Ukr/Chi | sub Eng



Жанр: драма, мелодрама, артхаус
Країна: Гонконг, Франція

Top 250 #234

Усі нагороди та номінації


Каннський кінофестиваль, 2000 рік
Переможець (2):
Кращий актор (Тоні Ленґ Чі Вай)
Технічний гран-при


Номінація:
Золота пальмова гілка

Любовний настрій / Fa yeung nin wa / In the Mood for Love (2000) 720p Ukr/Chi | sub Eng
Британська академія кіно та телевізійного мистецтва (BAFTA), 2001 рік
Номінація:
Кращий іншомовний фільм


Сезар, 2001 рік
Переможець:
Кращий іншомовний фільм



Європейська кіноакадемія, 2000 рік
Переможець:
Приз Screen International Award


Кінокомпанія: Block 2 Pictures, Jet Tone Production, Paradis Films
Режисер: Вонґ Кар Вай / Kar Wai Wong
Актори: Меґґі Ченґ / Maggie Cheung, Тоні Ленґ Чі Вай / Tony Leung Chiu Wai, Пінґ Лам Сіу / Ping Lam Siu, Танг Чо 'Джо' Чунг / Tung Cho 'Joe' Cheung, Ребека Пан / Rebecca Pan, Келлі Лаі Чен / Kelly Lai Chen, Ман-Лей Чан / Man-Lei Chan, Тсі-Анг Чін / Tsi-Ang Chin, Рой Ченґ / Roy Cheung, Паулін Сун / Paulyn Sun, По-чун Чов / Po-chun Chow, Кам-вах Ку / Kam-wah Koo, Хсіен Ю / Hsien Yu

Сюжет:
Герої цього маленького шедевру Су і Чоу винаймають сусідні кімнати в одному будинку. Чоловік Су та дружина Чоу постійно відсутні. Ми ніколи їх не побачимо. Чоу впізнає сумочку Су, яку подарував їй чоловік. У його дружини така ж. А Су впізнає краватку Чоу, що подарувала йому дружина. У її чоловіка такий же.



Рейтинг MPAA: PG-13 - дітям до 13 років перегляд не бажаний
Вікова категорія: 12+


Тривалість: 01:38:40
Якість: 720p
Відео:
кодек:
розмір кадру: 1200 x 720
бітрейт: 5464 кбіт/с

Аудіо # 1:
мова: українська
переклад: багатоголосий закадровий
кодек: 5.1
бітрейт: 448 кбіт/с
Фільм перекладено і озвучено студією KWA Sound Production на замовлення Артхаус Трафік

Аудіо # 2:
мова: китайська (кантонська)
переклад: оригінал
кодек: 5.1
бітрейт: 768 кбіт/с

Субтитри:
мова: англійська
тип: програмні (м'які)
формат: *.srt
MediaInfo
Код:
General
Unique ID                                : 170782516679559266712119226181620988031 (0x807B842B4299800F8B53289A62D1F87F)
Complete name                            : Fa yeung nin wa (2000) [Ukr,Chi sub.Eng] 720p [Hurtom & HDCLUB].mkv
Format                                   : Matroska
Format version                           : Version 4 / Version 2
File size                                : 4.70 GiB
Duration                                 : 1h 38mn
Overall bit rate                         : 6 816 Kbps
Movie name                               : Любовний настрій / Fa yeung nin wa / In the Mood for Love (2001) 720p [HDClub]
Encoded date                             : UTC 2014-05-15 08:31:19
Writing application                      : mkvmerge v6.9.1 ('Blue Panther') 64bit built on Apr 18 2014 18:23:38
Writing library                          : libebml v1.3.0 + libmatroska v1.4.1

Video
ID                                       : 1
Format                                   : AVC
Format/Info                              : Advanced Video Codec
Format profile                           : [email protected]
Format settings, CABAC                   : Yes
Format settings, ReFrames                : 8 frames
Codec ID                                 : V_MPEG4/ISO/AVC
Duration                                 : 1h 38mn
Bit rate                                 : 5 464 Kbps
Width                                    : 1 200 pixels
Height                                   : 720 pixels
Display aspect ratio                     : 1.667
Frame rate mode                          : Constant
Frame rate                               : 23.976 fps
Color space                              : YUV
Chroma subsampling                       : 4:2:0
Bit depth                                : 8 bits
Scan type                                : Progressive
Bits/(Pixel*Frame)                       : 0.264
Stream size                              : 3.77 GiB (80%)
Title                                    : Любовний настрій / Fa yeung nin wa / Любовное настроение / In the Mood for Love (2001) 720p [HDClub]
Writing library                          : core 129 r2230 1cffe9f
Encoding settings                        : cabac=1 / ref=8 / deblock=1:-2:-1 / analyse=0x3:0x113 / me=umh / subme=11 / psy=1 / psy_rd=0.85:0.00 / mixed_ref=1 / me_range=32 / chroma_me=1 / trellis=2 / 8x8dct=1 / cqm=0 / deadzone=21,11 / fast_pskip=0 / chroma_qp_offset=-2 / threads=12 / lookahead_threads=2 / sliced_threads=0 / nr=0 / decimate=1 / interlaced=0 / bluray_compat=0 / constrained_intra=0 / bframes=8 / b_pyramid=2 / b_adapt=2 / b_bias=0 / direct=1 / weightb=1 / open_gop=0 / weightp=2 / keyint=240 / keyint_min=23 / scenecut=40 / intra_refresh=0 / rc=crf / mbtree=0 / crf=18.0 / qcomp=0.70 / qpmin=0 / qpmax=69 / qpstep=4 / ip_ratio=1.40 / pb_ratio=1.30 / aq=2:0.70
Language                                 : Chinese
Default                                  : Yes
Forced                                   : No

Audio #1
ID                                       : 2
Format                                   : AC-3
Format/Info                              : Audio Coding 3
Mode extension                           : CM (complete main)
Format settings, Endianness              : Big
Codec ID                                 : A_AC3
Duration                                 : 1h 38mn
Bit rate mode                            : Constant
Bit rate                                 : 448 Kbps
Channel(s)                               : 6 channels
Channel positions                        : Front: L C R, Side: L R, LFE
Sampling rate                            : 48.0 KHz
Bit depth                                : 16 bits
Compression mode                         : Lossy
Stream size                              : 316 MiB (7%)
Title                                    : MVO [R5, KWA Sound Production] 5.1 448 Kbps
Language                                 : Ukrainian
Default                                  : Yes
Forced                                   : Yes

Audio #2
ID                                       : 3
Format                                   :
Format/Info                              : Digital Theater Systems
Mode                                     : 16
Format settings, Endianness              : Big
Codec ID                                 : A_DTS
Duration                                 : 1h 38mn
Bit rate mode                            : Constant
Bit rate                                 : 768 Kbps
Channel(s)                               : 6 channels
Channel positions                        : Front: L C R, Side: L R, LFE
Sampling rate                            : 48.0 KHz
Bit depth                                : 24 bits
Compression mode                         : Lossy
Stream size                              : 542 MiB (11%)
Title                                    : Original 5.1 768 Kbps
Language                                 : Chinese
Default                                  : No
Forced                                   : No

Text
ID                                       : 4
Format                                   : UTF-8
Codec ID                                 : S_TEXT/UTF8
Codec ID/Info                            : UTF-8 Plain Text
Title                                    : Eng full
Language                                 : English
Default                                  : No
Forced                                   : No

Menu
00:00:00.000                             : zh:Chapter 01
00:05:00.174                             : zh:Chapter 02
00:09:21.227                             : zh:Chapter 03
00:11:23.349                             : zh:Chapter 04
00:14:47.469                             : zh:Chapter 05
00:17:12.322                             : zh:Chapter 06
00:19:16.655                             : zh:Chapter 07
00:24:32.554                             : zh:Chapter 08
00:27:48.458                             : zh:Chapter 09
00:31:16.165                             : zh:Chapter 10
00:36:21.179                             : zh:Chapter 11
00:38:50.995                             : zh:Chapter 12
00:40:11.826                             : zh:Chapter 13
00:42:45.312                             : zh:Chapter 14
00:45:01.240                             : zh:Chapter 15
00:51:13.320                             : zh:Chapter 16
00:57:40.498                             : zh:Chapter 17
01:01:13.169                             : zh:Chapter 18
01:06:07.338                             : zh:Chapter 19
01:13:52.469                             : zh:Chapter 20
01:15:56.843                             : zh:Chapter 21
01:18:44.261                             : zh:Chapter 22
01:21:22.877                             : zh:Chapter 23
01:24:48.541                             : zh:Chapter 24
01:29:11.137                             : zh:Chapter 25
01:29:48.549                             : zh:Chapter 26
01:33:20.428                             : zh:Chapter 27




Джерело:


ЗАЛИШАЙТЕСЬ ЯКОМОГА ДОВШЕ НА РОЗДАЧІ!

СКАЧАВ САМ - ДАЙ СКАЧАТИ ІНШИМ


Срібний реліз (на рейтинг впливає 50% завантаженого)
 Трекер:    Зареєстрований   

Завантажити / скачати фільм українською



відео для новачків



 Зареєстрований:   2014-05-15 15:03
 Розмір:   4.7 GB 
 Оцінка фільму:   4.7/10 (Голосів: 18)
   
Olkos 
VIP


З нами з: 07.03.09
Востаннє: 08.12.16
Повідомлень: 534

2015-11-16 20:06  
Непоганий фільм, в окремих епізодах дуже вдало підібрана музика. Актора Тоні Ленґа пам'ятаю ще з фільмів Джона Ву, правда тут він уже в зовсім іншому амплуа.
.Rusnet8 
Частий відвідувач


З нами з: 19.07.10
Востаннє: 06.12.16
Повідомлень: 30

2016-03-25 11:25  
Трохи нуднуватий фільм, як на мене. Я вважаю що є набагато цікавіші фільми щоб ввійти в топ250.
Anonymous 







2016-03-25 11:34  
.Rusnet8,
igor911 написано:
Жанр: ..., артхаус

Ваш часовий пояс: GMT + 2 Години

Нова тема   Відповісти