Завантажити та скачати торренти українською


Луганський симфонічний оркестр - Ювілейний концерт з нагоди 10-річчя створення Бюро Торгового Радника Посольства Австрії в Україні (2003) [FLAC]

Нові коментарі

Нова тема   Відповісти
Останній раз роздавалося ssTAss (2016-12-09)
Автор Повідомлення
ssTAss 
Модератор музики


З нами з: 05.07.08
Востаннє: 09.12.16
Повідомлень: 10948

2014-05-14 21:06  
Луганський симфонічний оркестр - Ювілейний концерт з нагоди 10-річчя створення Бюро Торгового Радника Посольства Австрії в Україні (2003) [FLAC]

Луганський симфонічний оркестр - Ювілейний концерт з нагоди 10-річчя створення Бюро Торгового Радника Посольства Австрії в Україні (2003) [FLAC]


Стиль: Classic
Країна, місто: Україна, Луганськ
Сайти: Офіційний сайт
Видавець: Rostok records
Виконавці:
Академічний симфонічний оркестр Луганської обласної філармонії
Диригент: Курт Шмід (Австрія)
Солісти: Стефанія Довгань (сопрано), Андрій Маслаков (баритон), Сергій Магера (бас)
Пісні:
    01 - Й.Штраус - Увертюра до 'Індіго і 40 розбійників'
    02 - Й.Штраус - 'Легка кров', швидка полька
    03 - Д.Россіні - 'La calunnia e un venticello', арія Базіліо із 'Севільського циру...
    04 - Д.Россіні - 'Una voce poco fa', арія Розіни із 'Севільського цирульника'
    05 - В.А.Моцарт - 'La ci darem la mano', дует з опери 'Дон Жуан'
    06 - Ф.Лєгар - 'Пісня Вілії' з оперетти 'Весела вдова'
    07 - Й.Штраус - 'Під громом та блискавкою', швидка полька
    08 - К.Шмід - Ювілейний марш '10 років Бюро Торгового радника'
    09 - В.А.Моцарт - 'Па-Па-Па-Па', дует з опери 'Чарівна флейта'
    10 - К.Шмід - 'Поспіхом', швидка полька
    11 - В.А.Моцарт - 'Non piu andrai', арія Фігаро з опери 'Весілля Фігаро'
    12 - І.Шамо - 'Києве мій', вірші Д.Луценка
    13 - К.Данькевич - 'Кохав тебе як сина', арія з опери 'Богдан Хмельницький'
    14 - К.Шмід - Австрійсько-український марш дружби
    15 - Й.Штраус - 'На гарному блакитному Дунаї', вальс
    16 - К.Шмід - Фанфари Шустова
    17 - Й.Штраус - Марш Радецького

Тривалість: 01:11:55
Мова: українська (12,13), італійська (3-5,11), німецька (6,9), відсутня (1,2,7,8,10,14-17)
Аудіо-кодек: FLAC
Бітрейт: 787 кб/с
Джерело: власний диск
Додаткова інформація:
log
Exact Audio Copy V0.99 prebeta 5 from 4. May 2009

Звіт EAC про видобування, котре виконане 1. травня 2014, 1:28

Луганський симфонічний оркестр / Ювілейний концерт

Дисковод: SlimtypeDVD A DS8A1H Adapter: 0 ID: 0

Режим читання : Точний
Використати точний потік : Так
Вимкнути аудіо кеш : Так
Застосувати мітки C2 : Ні

Корекція зміщення при читанні : 594
Екстрачитання областей Lead-in і Lead-out : Ні
Заповнення пропущених семплів тишею : Так
Видалення блоків з тишею на початку і кінці : Ні
При вирахуванні CRC використовувались нульові семпли : Так
Використаний інтерфейс : 'Рідний' Win32-інтерфейс для Win NT/2000

Застосований вихідний формат : Кодер Користувача
Обраний бітрейт : 1024 kBit/s
Якість : Високий
Додати тег ID3 : Ні
Компресор командного рядка : C:\Program Files\Exact Audio Copy\Flac\flac.exe
Додаткові параметри командного рядка : -8 -V -T "ARTIST=%a" -T "TITLE=%t" -T "ALBUM=%g" -T "DATE=%y" -T "TRACKNUMBER=%n" -T "GENRE=%m" -T "COMMENT=EAC FLAC -8" %s

TOC видобутого CD

Трек | Старт | Довжина | Початковий сектор | Кінцевий сектор
------------------------------------------------------------------
1 | 0:00.00 | 7:32.74 | 0 | 33973
2 | 7:32.74 | 2:59.00 | 33974 | 47398
3 | 10:31.74 | 4:46.00 | 47399 | 68848
4 | 15:17.74 | 5:56.72 | 68849 | 95620
5 | 21:14.71 | 3:06.03 | 95621 | 109573
6 | 24:20.74 | 4:50.74 | 109574 | 131397
7 | 29:11.73 | 3:30.03 | 131398 | 147150
8 | 32:42.01 | 3:21.00 | 147151 | 162225
9 | 36:03.01 | 2:41.00 | 162226 | 174300
10 | 38:44.01 | 2:34.02 | 174301 | 185852
11 | 41:18.03 | 3:55.01 | 185853 | 203478
12 | 45:13.04 | 2:36.02 | 203479 | 215180
13 | 47:49.06 | 4:18.71 | 215181 | 234601
14 | 52:08.02 | 4:18.62 | 234602 | 254013
15 | 56:26.64 | 10:30.14 | 254014 | 301277
16 | 66:57.03 | 1:30.10 | 301278 | 308037
17 | 68:27.13 | 3:28.03 | 308038 | 323640

Статус діапазону і помилки

Обраний діапазон

Ім'я файлу C:\Temp\Луганський симфонічний оркестр - Ювілейний концерт.wav

Піковий рівень 100.0 %
Якість діапазону 99.9 %
CRC тесту 9CC4A03F
CRC копії 9CC4A03F
Копіювання... OK

Помилки не траплялися

Звіт Точного Видобування

Трек 1 не присутнє в базі даних
Трек 2 не присутнє в базі даних
Трек 3 не присутнє в базі даних
Трек 4 не присутнє в базі даних
Трек 5 не присутнє в базі даних
Трек 6 не присутнє в базі даних
Трек 7 не присутнє в базі даних
Трек 8 не присутнє в базі даних
Трек 9 не присутнє в базі даних
Трек 10 не присутнє в базі даних
Трек 11 не присутнє в базі даних
Трек 12 не присутнє в базі даних
Трек 13 не присутнє в базі даних
Трек 14 не присутнє в базі даних
Трек 15 не присутнє в базі даних
Трек 16 не присутнє в базі даних
Трек 17 не присутнє в базі даних

Жодного трека немає в базі AccurateRip

Кінець звіту
fooCDtect
fooCDtect - foobar2000 + auCDtect, baralgin.

auCDtect: CD records authenticity detector, version 0.8.2
Copyright (c) 2004 Oleg Berngardt. All rights reserved.
Copyright (c) 2004 Alexander Djourik. All rights reserved.

mode: 0

===========================================
Track: 01 - Й.Штраус - Увертюра до 'Індіго і 40 розбійників'
Quality: CDDA 100%
===========================================
Track: 02 - Й.Штраус - 'Легка кров', швидка полька
Quality: CDDA 100%
===========================================
Track: 03 - Д.Россіні - 'La calunnia e un venticello', арія Базіліо із 'Севільського циру...
Quality: CDDA 99%
===========================================
Track: 04 - Д.Россіні - 'Una voce poco fa', арія Розіни із 'Севільського цирульника'
Quality: CDDA 100%
===========================================
Track: 05 - В.А.Моцарт - 'La ci darem la mano', дует з опери 'Дон Жуан'
Quality: CDDA 100%
===========================================
Track: 06 - Ф.Лєгар - 'Пісня Вілії' з оперетти 'Весела вдова'
Quality: CDDA 100%
===========================================
Track: 07 - Й.Штраус - 'Під громом та блискавкою', швидка полька
Quality: CDDA 100%
===========================================
Track: 08 - К.Шмід - Ювілейний марш '10 років Бюро Торгового радника'
Quality: CDDA 100%
===========================================
Track: 09 - В.А.Моцарт - 'Па-Па-Па-Па', дует з опери 'Чарівна флейта'
Quality: CDDA 100%
===========================================
Track: 10 - К.Шмід - 'Поспіхом', швидка полька
Quality: CDDA 100%
===========================================
Track: 11 - В.А.Моцарт - 'Non piu andrai', арія Фігаро з опери 'Весілля Фігаро'
Quality: CDDA 99%
===========================================
Track: 12 - І.Шамо - 'Києве мій', вірші Д.Луценка
Quality: CDDA 100%
===========================================
Track: 13 - К.Данькевич - 'Кохав тебе як сина', арія з опери 'Богдан Хмельницький'
Quality: CDDA 100%
===========================================
Track: 14 - К.Шмід - Австрійсько-український марш дружби
Quality: CDDA 100%
===========================================
Track: 15 - Й.Штраус - 'На гарному блакитному Дунаї', вальс
Quality: CDDA 100%
===========================================
Track: 16 - К.Шмід - Фанфари Шустова
Quality: CDDA 100%
===========================================
Track: 17 - Й.Штраус - Марш Радецького
Quality: CDDA 99%
===========================================


Якщо Ви справді бажаєте підтримати українське - після прослуховування, якщо музика вам сподобалась,
придбайте ліцензійний диск.
Підтримаймо вітчизняних виконавців!


Срібний реліз (на рейтинг впливає 50% завантаженого)
 Трекер:    Зареєстрований   

Завантажити / скачати українську музику



відео для новачків



 Зареєстрований:   2014-05-14 21:06
 Розмір:   460 MB 
 Оцінка музики:   6.1/10 (Голосів: 7)
   
Ваш часовий пояс: GMT + 2 Години

Нова тема   Відповісти