Завантажити та скачати торренти українською


Протистояння / The One (2001) AVC Ukr/Eng | sub Eng

Нові коментарі

Нова тема   Відповісти
Автор Повідомлення
Anonymous 







2014-05-14 16:23  
Протистояння / The One (2001) AVC Ukr/Eng | sub Eng



Жанр: фантастика, бойовик, трилер
Країна: США



Кінокомпанія: Revolution Studios, Hard Eight Pictures
Режисер: Джеймс Вонг / James Wong
Актори: Джет Лі / Jet Li, Джейсон Стетхем / Jason Statham, Карла Гуджіно, Делрой Ліндо, Джеймс Моррісон, Ділан Бруно, Річард Стейнметц, Стів Ренкін, Таккер Смоллвуд, Харріет Сенсом Харріс та інші

Сюжет:
Що робити, якщо твій світ валиться, коли в нього вторгається безжалісний прибулець з паралельних світів? Прагнучи стати надлюдиною, агент Міжпросторового Бюро Розслідувань Габріель Юло здійснює запаморочливе сафарі по паралельних світах, полюючи за своїми двійниками.
Сили його зростають з кожною новою жертвою, їх життєва енергія акумулюється в ньому, наділяючи його неймовірними здібностями. Ніхто не знає, що трапиться з тендітною рівновагою всесвітів, якщо Габрієль досягне своєї мети - знищити всіх двійників. Його мрія вже майже стає реальністю, коли на шляху Юло стає Гейб - поліцейський з Лос-Анджелеса ...



Рейтинг MPAA: R - особам до 17 років обов'язкова присутність батьків або дорослого опікуна
Вікова категорія: 16+


Тривалість: 01:27:18
Якість: AVC
Відео:
кодек:
розмір кадру: 1024x424
бітрейт: 2238 кбіт/с

Аудіо # 1:
мова: українська - Так Треба Продакшн
переклад: багатоголосий закадровий
кодек: 5.1
бітрейт: 448 кбіт/с

Аудіо # 2:
мова: англійська
переклад: оригінал
кодек: 5.1
бітрейт: 448 кбіт/с

Субтитри # 1-2:
мова: англійські, англійські SDH
тип: програмні (м'які)
формат: *.srt
MediaInfo
Код:
General
Unique ID                                : 184797951927481358169036174895775569695 (0x8B06CA7A3F7EFDBBA2241E0C7241571F)
Complete name                            : The One (2001) [Ukr,Eng sub.Eng] AVC [Hurtom].mkv
Format                                   : Matroska
Format version                           : Version 4 / Version 2
File size                                : 1.91 GiB
Duration                                 : 1h 27mn
Overall bit rate                         : 3 133 Kbps
Movie name                               : Протистояння / The One (2001) AVC [Hurtom]
Encoded date                             : UTC 2014-05-14 14:02:52
Writing application                      : mkvmerge v6.9.1 ('Blue Panther') 64bit built on Apr 18 2014 18:23:38
Writing library                          : libebml v1.3.0 + libmatroska v1.4.1

Video
ID                                       : 1
Format                                   : AVC
Format/Info                              : Advanced Video Codec
Format profile                           : [email protected]
Format settings, CABAC                   : Yes
Format settings, ReFrames                : 7 frames
Codec ID                                 : V_MPEG4/ISO/AVC
Duration                                 : 1h 27mn
Bit rate                                 : 2 238 Kbps
Width                                    : 1 024 pixels
Height                                   : 424 pixels
Display aspect ratio                     : 2.40:1
Frame rate mode                          : Constant
Frame rate                               : 23.976 fps
Color space                              : YUV
Chroma subsampling                       : 4:2:0
Bit depth                                : 8 bits
Scan type                                : Progressive
Bits/(Pixel*Frame)                       : 0.215
Stream size                              : 1.33 GiB (69%)
Title                                    : Протистояння / Противостояние / Единственный / The One (2001) AVC
Writing library                          : core 92 r1510 33d382a
Encoding settings                        : cabac=1 / ref=7 / deblock=1:-1:-1 / analyse=0x3:0x113 / me=umh / subme=9 / psy=1 / psy_rd=1.00:0.10 / mixed_ref=1 / me_range=24 / chroma_me=1 / trellis=2 / 8x8dct=1 / cqm=0 / deadzone=21,11 / fast_pskip=0 / chroma_qp_offset=-3 / threads=3 / sliced_threads=0 / nr=0 / decimate=1 / interlaced=0 / constrained_intra=0 / bframes=6 / b_pyramid=2 / b_adapt=2 / b_bias=0 / direct=3 / wpredb=0 / wpredp=0 / keyint=250 / keyint_min=25 / scenecut=40 / intra_refresh=0 / rc_lookahead=50 / rc=2pass / mbtree=1 / bitrate=2238 / ratetol=1.0 / qcomp=0.60 / qpmin=10 / qpmax=51 / qpstep=4 / cplxblur=20.0 / qblur=0.5 / ip_ratio=1.40 / aq=1:1.00
Language                                 : English
Default                                  : Yes
Forced                                   : No

Audio #1
ID                                       : 2
Format                                   : AC-3
Format/Info                              : Audio Coding 3
Mode extension                           : CM (complete main)
Format settings, Endianness              : Big
Codec ID                                 : A_AC3
Duration                                 : 1h 27mn
Bit rate mode                            : Constant
Bit rate                                 : 448 Kbps
Channel(s)                               : 6 channels
Channel positions                        : Front: L C R, Side: L R, LFE
Sampling rate                            : 48.0 KHz
Bit depth                                : 16 bits
Compression mode                         : Lossy
Stream size                              : 280 MiB (14%)
Title                                    : MVO [Так Треба Продакшн] 5.1 448 Kbps [Hurtom-JACKUS]
Language                                 : Ukrainian
Default                                  : Yes
Forced                                   : Yes

Audio #2
ID                                       : 3
Format                                   : AC-3
Format/Info                              : Audio Coding 3
Mode extension                           : CM (complete main)
Format settings, Endianness              : Big
Codec ID                                 : A_AC3
Duration                                 : 1h 27mn
Bit rate mode                            : Constant
Bit rate                                 : 448 Kbps
Channel(s)                               : 6 channels
Channel positions                        : Front: L C R, Side: L R, LFE
Sampling rate                            : 48.0 KHz
Bit depth                                : 16 bits
Compression mode                         : Lossy
Stream size                              : 280 MiB (14%)
Title                                    : Original 5.1 448 Kbps
Language                                 : English
Default                                  : No
Forced                                   : No

Text #1
ID                                       : 4
Format                                   : UTF-8
Codec ID                                 : S_TEXT/UTF8
Codec ID/Info                            : UTF-8 Plain Text
Title                                    : Eng full
Language                                 : English
Default                                  : No
Forced                                   : No

Text #2
ID                                       : 5
Format                                   : UTF-8
Codec ID                                 : S_TEXT/UTF8
Codec ID/Info                            : UTF-8 Plain Text
Title                                    : Eng SDH
Language                                 : English
Default                                  : No
Forced                                   : No




Джерела та подяки: & інше
українська доріжка - JACKUS - зведення, Merdif - запис з ТБ; український постер - bilenkuyboy (всі - Гуртом).


ЗАЛИШАЙТЕСЬ ЯКОМОГА ДОВШЕ НА РОЗДАЧІ!

СКАЧАВ САМ - ДАЙ СКАЧАТИ ІНШИМ


Срібний реліз (на рейтинг впливає 50% завантаженого)
 Трекер:    Зареєстрований   

Завантажити / скачати фільм українською



відео для новачків



 Зареєстрований:   2014-05-14 16:23
 Розмір:   1.91 GB 
 Оцінка фільму:   6.8/10 (Голосів: 30)
   
Інші релізи
   Протистояння / The One (2001) 720p Ukr/Eng | sub Eng igor911  4 / 0   7.19 GB   2014-05-14 15:33 
   Протистояння / The One (2001) Ukr | sub Eng JACKUS  3 / 0   1.46 GB   2010-06-28 16:20 
Віктор Багряний 
VIP


З нами з: 20.08.12
Востаннє: 01.12.16
Повідомлень: 277

2014-05-14 17:45  
Підпишіть петицію визнати Росію спонсором тероризму, на сайті Білого дому
https://petitions.whitehouse.gov/petition/designate-russia-state-sponsor-terrorism/XMjbTltM

покрокова інструкція

http://uainfo.org/yandex/318585-podpisat-peticiyu-za-priznanie-rossii-sponsorom-terrorizma-poshagovaya-instrukciya.html

НЕСТОР МАХНО 
Свій


З нами з: 28.04.10
Востаннє: 01.12.16
Повідомлень: 104

2014-05-14 20:03  
Віктор Багряний
будь ласка допоможіть як це зробити ????бо щось нічого не виходить(((

Віктор Багряний 
VIP


З нами з: 20.08.12
Востаннє: 01.12.16
Повідомлень: 277

2014-05-14 20:37  
Цитата:
НЕСТОР МАХНО 


покрокова інструкція

http://uainfo.org/yandex/318585-podpisat-peticiyu-za-priznanie-rossii-sponsorom-terrorizma-poshagovaya-instrukciya.html

MrRyanCooper 
VIP


З нами з: 23.08.12
Востаннє: 02.12.16
Повідомлень: 280

2016-02-05 22:50  
Дякую, класне. Хоч і фантастичне.
Стосовно постера: може й не моє діло, але в написі внизу останнє слово "він" скоріш за все зайве, адже в першому рядку вже воно вживається.

Ваш часовий пояс: GMT + 2 Години

Нова тема   Відповісти