Завантажити та скачати торренти українською


Протистояння / The One (2001) 720p Ukr/Eng | sub Eng

Нові коментарі

Нова тема   Відповісти
Автор Повідомлення
Anonymous 







2014-05-14 15:33  
Протистояння / The One (2001) 720p Ukr/Eng | sub Eng



Жанр: фантастика, бойовик, трилер
Країна: США



Кінокомпанія: Revolution Studios, Hard Eight Pictures
Режисер: Джеймс Вонг / James Wong
Актори: Джет Лі / Jet Li, Джейсон Стетхем / Jason Statham, Карла Гуджіно, Делрой Ліндо, Джеймс Моррісон, Ділан Бруно, Річард Стейнметц, Стів Ренкін, Таккер Смоллвуд, Харріет Сенсом Харріс та інші

Сюжет:
Що робити, якщо твій світ валиться, коли в нього вторгається безжалісний прибулець з паралельних світів? Прагнучи стати надлюдиною, агент Міжпросторового Бюро Розслідувань Габріель Юло здійснює запаморочливе сафарі по паралельних світах, полюючи за своїми двійниками.
Сили його зростають з кожною новою жертвою, їх життєва енергія акумулюється в ньому, наділяючи його неймовірними здібностями. Ніхто не знає, що трапиться з тендітною рівновагою всесвітів, якщо Габрієль досягне своєї мети - знищити всіх двійників. Його мрія вже майже стає реальністю, коли на шляху Юло стає Гейб - поліцейський з Лос-Анджелеса ...



Рейтинг MPAA: R - особам до 17 років обов'язкова присутність батьків або дорослого опікуна
Вікова категорія: 16+


Тривалість: 01:27:18
Якість: 720p
Відео:
кодек:
розмір кадру: 1280x534
бітрейт: 9406 кбіт/с

Аудіо # 1:
мова: українська - Так Треба Продакшн
переклад: багатоголосий закадровий
кодек: 5.1
бітрейт: 448 кбіт/с

Аудіо # 2:
мова: англійська
переклад: оригінал
кодек: 5.1
бітрейт: 1536 кбіт/с

Аудіо # 3:
мова: англійська
переклад: коментарі
кодек: 2.0
бітрейт: 192 кбіт/с

Субтитри # 1-5:
мова: англійська (1-3), SDH (4), comentary (5)
тип: програмні (м'які)
формат: *.srt

Збережено оригінальні розділи, як на Blu-ray.
MediaInfo
Код:
General
Unique ID                                : 179559518608671972353950447216391180514 (0x8715E7C640400DBDB8B7823BBE2550E2)
Complete name                            : The One (2001) [Ukr,Eng sub.Eng] 720p [Hurtom & HDClub].mkv
Format                                   : Matroska
Format version                           : Version 4 / Version 2
File size                                : 7.19 GiB
Duration                                 : 1h 27mn
Overall bit rate                         : 11.8 Mbps
Movie name                               : Протистояння / The One (2001) 720p [Hurtom & HDClub]
Encoded date                             : UTC 2014-05-14 12:06:12
Writing application                      : mkvmerge v6.9.1 ('Blue Panther') 64bit built on Apr 18 2014 18:23:38
Writing library                          : libebml v1.3.0 + libmatroska v1.4.1

Video
ID                                       : 1
Format                                   : AVC
Format/Info                              : Advanced Video Codec
Format profile                           : [email protected]
Format settings, CABAC                   : Yes
Format settings, ReFrames                : 12 frames
Codec ID                                 : V_MPEG4/ISO/AVC
Duration                                 : 1h 27mn
Bit rate                                 : 9 406 Kbps
Width                                    : 1 280 pixels
Height                                   : 534 pixels
Display aspect ratio                     : 2.40:1
Frame rate mode                          : Constant
Frame rate                               : 23.976 fps
Color space                              : YUV
Chroma subsampling                       : 4:2:0
Bit depth                                : 8 bits
Scan type                                : Progressive
Bits/(Pixel*Frame)                       : 0.574
Stream size                              : 5.74 GiB (80%)
Title                                    : Протистояння / Противостояние / Единственный / Один / The One (2001) 720p [CRiSC / HDClub-shuriken331]
Writing library                          : core 125 r2200 999b753
Encoding settings                        : cabac=1 / ref=12 / deblock=1:-3:-3 / analyse=0x3:0x133 / me=umh / subme=11 / psy=1 / psy_rd=1.05:0.00 / mixed_ref=1 / me_range=48 / chroma_me=1 / trellis=2 / 8x8dct=1 / cqm=0 / deadzone=21,11 / fast_pskip=0 / chroma_qp_offset=-2 / threads=12 / lookahead_threads=2 / sliced_threads=0 / nr=0 / decimate=1 / interlaced=0 / bluray_compat=0 / constrained_intra=0 / bframes=9 / b_pyramid=2 / b_adapt=2 / b_bias=0 / direct=3 / weightb=1 / open_gop=0 / weightp=2 / keyint=250 / keyint_min=23 / scenecut=40 / intra_refresh=0 / rc_lookahead=40 / rc=crf / mbtree=0 / crf=15.0 / qcomp=0.60 / qpmin=0 / qpmax=69 / qpstep=4 / vbv_maxrate=62500 / vbv_bufsize=78125 / crf_max=0.0 / nal_hrd=none / ip_ratio=1.40 / pb_ratio=1.30 / aq=1:0.80
Language                                 : English
Default                                  : Yes
Forced                                   : No

Audio #1
ID                                       : 2
Format                                   : AC-3
Format/Info                              : Audio Coding 3
Mode extension                           : CM (complete main)
Format settings, Endianness              : Big
Codec ID                                 : A_AC3
Duration                                 : 1h 27mn
Bit rate mode                            : Constant
Bit rate                                 : 448 Kbps
Channel(s)                               : 6 channels
Channel positions                        : Front: L C R, Side: L R, LFE
Sampling rate                            : 48.0 KHz
Bit depth                                : 16 bits
Compression mode                         : Lossy
Stream size                              : 280 MiB (4%)
Title                                    : MVO [Так Треба Продакшн] 5.1 448 Kbps [Hurtom-JACKUS]
Language                                 : Ukrainian
Default                                  : Yes
Forced                                   : Yes

Audio #2
ID                                       : 3
Format                                   :
Format/Info                              : Digital Theater Systems
Mode                                     : 16
Format settings, Endianness              : Big
Codec ID                                 : A_DTS
Duration                                 : 1h 27mn
Bit rate mode                            : Constant
Bit rate                                 : 1 510 Kbps
Channel(s)                               : 6 channels
Channel positions                        : Front: L C R, Side: L R, LFE
Sampling rate                            : 48.0 KHz
Bit depth                                : 16 bits
Compression mode                         : Lossy
Stream size                              : 943 MiB (13%)
Title                                    : Original 5.1 1536 Kbps
Language                                 : English
Default                                  : No
Forced                                   : No

Audio #3
ID                                       : 4
Format                                   : AC-3
Format/Info                              : Audio Coding 3
Mode extension                           : CM (complete main)
Format settings, Endianness              : Big
Codec ID                                 : A_AC3
Duration                                 : 1h 27mn
Bit rate mode                            : Constant
Bit rate                                 : 192 Kbps
Channel(s)                               : 2 channels
Channel positions                        : Front: L R
Sampling rate                            : 48.0 KHz
Bit depth                                : 16 bits
Compression mode                         : Lossy
Stream size                              : 120 MiB (2%)
Title                                    : Commentary
Language                                 : English
Default                                  : No
Forced                                   : No

Text #1
ID                                       : 5
Format                                   : UTF-8
Codec ID                                 : S_TEXT/UTF8
Codec ID/Info                            : UTF-8 Plain Text
Title                                    : Eng full #1
Language                                 : English
Default                                  : No
Forced                                   : No

Text #2
ID                                       : 6
Format                                   : UTF-8
Codec ID                                 : S_TEXT/UTF8
Codec ID/Info                            : UTF-8 Plain Text
Title                                    : Eng full #2
Language                                 : English
Default                                  : No
Forced                                   : No

Text #3
ID                                       : 7
Format                                   : UTF-8
Codec ID                                 : S_TEXT/UTF8
Codec ID/Info                            : UTF-8 Plain Text
Title                                    : Eng full #3
Language                                 : English
Default                                  : No
Forced                                   : No

Text #4
ID                                       : 8
Format                                   : UTF-8
Codec ID                                 : S_TEXT/UTF8
Codec ID/Info                            : UTF-8 Plain Text
Title                                    : Eng SDH
Language                                 : English
Default                                  : No
Forced                                   : No

Text #5
ID                                       : 9
Format                                   : UTF-8
Codec ID                                 : S_TEXT/UTF8
Codec ID/Info                            : UTF-8 Plain Text
Title                                    : Commentary
Language                                 : English
Default                                  : No
Forced                                   : No

Menu
00:00:00.000                             : :00:00:00.000
00:04:14.588                             : :00:04:14.588
00:08:28.591                             : :00:08:28.591
00:14:19.108                             : :00:14:19.108
00:18:58.804                             : :00:18:58.804
00:24:36.141                             : :00:24:36.141
00:32:51.178                             : :00:32:51.178
00:38:36.272                             : :00:38:36.272
00:45:15.379                             : :00:45:15.379
00:49:59.830                             : :00:49:59.830
00:55:28.075                             : :00:55:28.075
00:58:35.846                             : :00:58:35.846
01:03:10.620                             : :01:03:10.620
01:06:21.227                             : :01:06:21.227
01:13:26.110                             : :01:13:26.110
01:17:42.741                             : :01:17:42.741




Джерела та подяки: &
ріп відео, оригінальні звук та субтитри - CRiSC, shuriken331 (HDClub); українська доріжка - JACKUS - зведення, Merdif - запис з ТБ; український постер - bilenkuyboy (всі - Гуртом).


ЗАЛИШАЙТЕСЬ ЯКОМОГА ДОВШЕ НА РОЗДАЧІ!

СКАЧАВ САМ - ДАЙ СКАЧАТИ ІНШИМ


Срібний реліз (на рейтинг впливає 50% завантаженого)
 Трекер:    Зареєстрований   

Завантажити / скачати фільм українською



відео для новачків



 Зареєстрований:   2014-05-14 15:33
 Розмір:   7.19 GB 
 Оцінка фільму:   4.6/10 (Голосів: 17)
   
Інші релізи
   Протистояння / The One (2001) AVC Ukr/Eng | sub Eng igor911  4 / 0   1.91 GB   2014-05-14 16:23 
   Протистояння / The One (2001) Ukr | sub Eng JACKUS  3 / 0   1.46 GB   2010-06-28 16:20 
Anonymous 







2014-05-14 15:36  
Мій 200-й реліз Wide grin
AntonGhost 
Свій


З нами з: 25.01.14
Востаннє: 30.11.16
Повідомлень: 91

2014-05-14 17:17  
igor911
Вітаю!
І дякую!

Ваш часовий пояс: GMT + 2 Години

Нова тема   Відповісти