Завантажити та скачати торренти українською


Нокдаун / Cinderella Man (2005) AVC Ukr/Eng | Sub Eng

Нові коментарі

Нова тема   Відповісти
Автор Повідомлення
Anonymous 







2014-05-13 20:05  
Нокдаун / Cinderella Man (2005) AVC Ukr/Eng | Sub Eng



Альтернативний український постер


Жанр: драма, біографічний, спорт
Країна: США



Кінокомпанія: Universal Pictures, Miramax Films, Imagine Entertainment
Режисер: Рон Ховард / Ron Howard
Актори: Рассел Кроу / Russell Crowe, Рене Зеллвеґер (Renée Zellweger), Коннор Прайс / Connor Price, Нік Сміт / Nick Smith, Метью Дж. Тейлор / Matthew G. Taylor, Пол Джаматті / Paul Giamatti

Сюжет:
Зазнавши декілька поразок підряд, боксер-важковаговик Джим Бреддок змушений кинути спорт. За часів Великої депресії Бреддок береться за будь-яку роботу, щоб прогодувати свою дружину Мей та дітей. При цьому він все ще сподівається повернутися на ринг. І одного разу йому випадає такий шанс. В останню хвилину він заміняє іншого боксера і виходить на поєдинок з претендентом на титул чемпіона світу.

На диво всім, Бреддок перемагає вже в третьому раунді. Незважаючи на те, що він важить менше своїх суперників і до того ж страждає від численних травм, Джим продовжує битися і вигравати. Апофеозом же його спортивної кар'єри стає поєдинок з чемпіоном світу Максом Баєром, що убив на ринзі двох людей...


Нагороди та номінації


Оскар, 2006 рік
Номінації (3):
Краща чоловіча роль другого плану (Пол Джаматті)
Кращий монтаж
Кращий грим



Золотий глобус, 2006 рік
Номінації (2):
Краща чоловіча роль (драма) (Рассел Кроу)
Краща чоловіча роль другого плану (Пол Джаматті)


Нокдаун / Cinderella Man (2005) AVC Ukr/Eng | Sub Eng
Британська академія кіно та телевізійного мистецтва, 2006 рік
Номінації (1):
Кращий оригінальний сценарій

Нокдаун / Cinderella Man (2005) AVC Ukr/Eng | Sub Eng
Премія Гільдії акторів, 2006 рік
Переможець (1):
Краща чоловіча роль другого плану (Пол Джаматті)


Номінації (1):
Краща чоловіча роль (Рассел Кроу)



рейтинг MPAA: PG-13 - дітям до 13 років перегляд не бажаний
Вікова категорія: 12+


Тривалість: 02:24:21
Якість: AVC
Відео:
кодек:
розмір кадру: 1024х436
бітрейт: 2500 кбіт/с

Аудіо # 1: Так Треба Продакшн на замовлення
мова: українська
переклад: багатоголосий закадровий
Ролі озвучили: Юрій Ребрик (Рассел Кроу / Джим Бреддок), Олег Стальчук, Володимир Терещук і один жіночий голос
кодек: 5.1
бітрейт: 448 кб/с

Аудіо # 2:
мова: англійська
переклад: оригінал
кодек: 5.1
бітрейт: 448 кб/с

Субтитри:
мова: англійська (повні)
тип: програмні (м'які)
формат: *.srt

Збережено оригінальні розділи, як на Blu-ray.
MediaInfo та
[info]: frame I:1709 Avg QP:14.21 size: 60000
[info]: frame P:50521 Avg QP:17.11 size: 23929
[info]: frame B:155434 Avg QP:18.28 size: 8964

Код:
General
Unique ID                                : 196922316694631199488805865293966153970 (0x9425DBD0185A57F8BFE577BE03AB18F2)
Complete name                            : Cinderella Man (2005) [Ukr,Eng sub.Eng] AVC [Hurtom & MediaClub].mkv
Format                                   : Matroska
Format version                           : Version 4 / Version 2
File size                                : 3.42 GiB
Duration                                 : 2h 24mn
Overall bit rate                         : 3 396 Kbps
Movie name                               : Нокдаун / Cinderella Man (2005) AVC [Hurtom & MediaClub]
Encoded date                             : UTC 2014-05-13 17:56:25
Writing application                      : mkvmerge v6.9.1 ('Blue Panther') 64bit built on Apr 18 2014 18:23:38
Writing library                          : libebml v1.3.0 + libmatroska v1.4.1

Video
ID                                       : 1
Format                                   : AVC
Format/Info                              : Advanced Video Codec
Format profile                           : [email protected]
Format settings, CABAC                   : Yes
Format settings, ReFrames                : 9 frames
Codec ID                                 : V_MPEG4/ISO/AVC
Duration                                 : 2h 24mn
Bit rate                                 : 2 500 Kbps
Width                                    : 1 024 pixels
Height                                   : 436 pixels
Display aspect ratio                     : 2.35:1
Frame rate mode                          : Constant
Frame rate                               : 23.976 fps
Color space                              : YUV
Chroma subsampling                       : 4:2:0
Bit depth                                : 8 bits
Scan type                                : Progressive
Bits/(Pixel*Frame)                       : 0.234
Stream size                              : 2.45 GiB (72%)
Title                                    : Нокдаун / Cinderella Man (2005) AVC [MediaClub-Lefevr]
Writing library                          : core 130 r2273 b3065e6
Encoding settings                        : cabac=1 / ref=9 / deblock=1:-3:-2 / analyse=0x3:0x133 / me=umh / subme=11 / psy=1 / psy_rd=1.00:0.20 / mixed_ref=1 / me_range=48 / chroma_me=1 / trellis=2 / 8x8dct=1 / cqm=0 / deadzone=21,11 / fast_pskip=0 / chroma_qp_offset=-3 / threads=6 / lookahead_threads=1 / sliced_threads=0 / nr=0 / decimate=0 / interlaced=0 / bluray_compat=0 / constrained_intra=0 / bframes=8 / b_pyramid=2 / b_adapt=2 / b_bias=0 / direct=3 / weightb=1 / open_gop=0 / weightp=2 / keyint=240 / keyint_min=23 / scenecut=40 / intra_refresh=0 / rc=2pass / mbtree=0 / bitrate=2500 / ratetol=1.0 / qcomp=0.60 / qpmin=0 / qpmax=69 / qpstep=4 / cplxblur=20.0 / qblur=0.5 / ip_ratio=1.40 / pb_ratio=1.30 / aq=1:1.00
Language                                 : English
Default                                  : Yes
Forced                                   : No

Audio #1
ID                                       : 2
Format                                   : AC-3
Format/Info                              : Audio Coding 3
Mode extension                           : CM (complete main)
Format settings, Endianness              : Big
Codec ID                                 : A_AC3
Duration                                 : 2h 24mn
Bit rate mode                            : Constant
Bit rate                                 : 448 Kbps
Channel(s)                               : 6 channels
Channel positions                        : Front: L C R, Side: L R, LFE
Sampling rate                            : 48.0 KHz
Bit depth                                : 16 bits
Compression mode                         : Lossy
Stream size                              : 463 MiB (13%)
Title                                    : MVO [TakTrebaProduction - ICTV] 5.1 448 Kbps [HDClub-serin]
Language                                 : Ukrainian
Default                                  : Yes
Forced                                   : Yes

Audio #2
ID                                       : 3
Format                                   : AC-3
Format/Info                              : Audio Coding 3
Mode extension                           : CM (complete main)
Format settings, Endianness              : Big
Codec ID                                 : A_AC3
Duration                                 : 2h 24mn
Bit rate mode                            : Constant
Bit rate                                 : 448 Kbps
Channel(s)                               : 6 channels
Channel positions                        : Front: L C R, Side: L R, LFE
Sampling rate                            : 48.0 KHz
Bit depth                                : 16 bits
Compression mode                         : Lossy
Stream size                              : 463 MiB (13%)
Title                                    : Original 5.1 448 Kbps
Language                                 : English
Default                                  : No
Forced                                   : No

Text
ID                                       : 4
Format                                   : UTF-8
Codec ID                                 : S_TEXT/UTF8
Codec ID/Info                            : UTF-8 Plain Text
Title                                    : Eng full
Language                                 : English
Default                                  : No
Forced                                   : No

Menu
00:00:00.000                             : en:The Next Champ
00:08:00.021                             : en:Past Due
00:16:23.023                             : en:Washed-Up
00:23:22.818                             : en:Decommisioned
00:28:37.382                             : en:Cut Off
00:38:53.039                             : en:Emergency Relief
00:44:00.179                             : en:One Last Chance
00:49:00.854                             : en:Going in Hungry
00:58:43.686                             : en:Sizing Up the Champ
01:02:53.186                             : en:Back to Even
01:10:40.694                             : en:Getting Serious
01:14:48.275                             : en:Don't Back Down
01:22:51.299                             : en:Count Your Blessings
01:28:17.000                             : en:Know What You're Fighting For
01:36:17.938                             : en:Giving Hope
01:40:44.163                             : en:Find a Way Out
01:44:23.799                             : en:Tremendous Underdog
01:54:34.742                             : en:The Main Event
02:04:41.807                             : en:Championship Round
02:17:43.380                             : en:End Credits




Джерела та подяки: &
ріп відео, оригінальні звук та субтитри - Lefevr (MediaClub); українська доріжка - serin (HDСlub); український постер - bogdan8249 (Гуртом).

Особиста оцінка: 8 - мені сподобалося


ЗАЛИШАЙТЕСЬ ЯКОМОГА ДОВШЕ НА РОЗДАЧІ!

СКАЧАВ САМ - ДАЙ СКАЧАТИ ІНШИМ


 Трекер:    Зареєстрований   

Завантажити / скачати фільм українською



відео для новачків



 Зареєстрований:   2014-05-13 20:05
 Розмір:   3.42 GB 
 Оцінка фільму:   7.1/10 (Голосів: 33)
   
Інші релізи
   Нокдаун / Cinderella Man (2005) 720p Ukr/Eng | Sub Eng igor911  2 / 0   7.77 GB   2015-03-12 18:49 
   Нокдаун / Cinderella Man (2005) 1080p Ukr/Eng | Sub Eng igor911  5 / 0   10.08 GB   2013-06-24 19:00 
   Нокдаун / Cinderella Man (2005) Ukr/Eng | Sub Eng bogdan8249  11 / 0   2.91 GB   2009-09-09 22:33 
andju 
Частий відвідувач


З нами з: 30.07.12
Востаннє: 04.12.16
Повідомлень: 28

2014-05-18 21:30  
Фільм бобма!Рекомендую всі його подивитись, а особливо тим хто любить дивитися фільми, які зняті на реальних подіях!10 з 10
zaika 
VIP


З нами з: 01.07.12
Востаннє: 05.12.16
Повідомлень: 949

2014-05-22 07:22  
Простий сюжет, але надзвичайно добре поставлений фільм. Весь час тримає в напружені. Моментами до сліз зворушливий. Ну і звичайно Рене Зеллвегер - вона дуже мила. Мій респект студії ТТП. Прекрасна озвучка. І що головне ні разу, за московською дурною модою, не вимовили літеру h - як х. Так тримати. 10/10.
drtato 
Свій


З нами з: 28.10.10
Востаннє: 05.12.16
Повідомлень: 96

2015-03-15 10:45  
Фільм дуже сподобався ! Дивовижний фільм ! Як я його раніше пропустив?! Обов'язковий для перегляду всіма хто його не бачив.
Ваш часовий пояс: GMT + 2 Години

Нова тема   Відповісти