Завантажити та скачати торренти українською


Острів Нім, Повернення на острів Нім (Дилогія) / Nim's Island, Return to Nim's Island (Dilogy) (2008, 2013) 720p Ukr/Eng | sub Ukr/Eng

Нові коментарі

Нова тема   Відповісти
Автор Повідомлення
Anonymous 







2014-05-13 17:45  
Острів Нім / Nim's Island (2008) 720p 2xUkr/Eng | sub Ukr/Eng
Повернення на острів Нім / Return to Nim's Island (2013) 720p Ukr/Eng | sub Eng


Острів Нім, Повернення на острів Нім (Дилогія) / Nim's Island, Return to Nim's Island (Dilogy) (2008, 2013) 720p Ukr/Eng | sub Ukr/Eng Острів Нім, Повернення на острів Нім (Дилогія) / Nim's Island, Return to Nim's Island (Dilogy) (2008, 2013) 720p Ukr/Eng | sub Ukr/Eng


Жанр: сімейний, пригодницький, комедія
Острів Нім / Nim's Island (2008) 720p 2xUkr/Eng | sub Ukr/Eng

Острів Нім / Nim's Island (2008) 720p 2xUkr/Eng | sub Ukr/Eng

Острів Нім, Повернення на острів Нім (Дилогія) / Nim's Island, Return to Nim's Island (Dilogy) (2008, 2013) 720p Ukr/Eng | sub Ukr/Eng

Альтернативний українізований постер



Жанр: фентезі, комедія, пригодницький, сімейний
Країна: США



Кінокомпанія: Walden Media, 20th Century Fox
Режисер: Дженніфер Флекетт / Jennifer Flackett, Марк Левін / Mark Levin
Актори: Ебігейл Бреслін / Abigail Breslin, Джоді Фостер / Jodie Foster, Джерард Батлер / Gerard Butler, Майкл Карман / Michael Carman, Марк Брейді / Mark Brady, Ентоні Сімко / Anthony Simcoe, Крістофер Бейкер / Christopher Baker, Меддісон Джойс / Maddison Joyce, Пітер Келлан / Peter Callan, Ронда Дойл / Rhonda Doyle, Раселл Батлер / Russell Butler та інші.

Сюжет:
Дівчинка на ім'я Нім живе на віддаленому острові зі своїм батьком. Її друзі - це ігуана Фред, морський лев Селкі, черепаха Чіка та супутникова тарілка для виходу в Інтернет. І коли батько несподівано зникає, вона повинна виявити всю свою хоробрість, щоб розшукати його за допомогою своїх старих і нових друзів...



Рейтинг MPAA: PG - рекомендується присутність батьків
Вікова категорія: 12+


Тривалість: 01:36:04
Якість: 720p
Відео:
кодек:
розмір кадру: 1280х532
бітрейт: 4877 кбіт/с

Аудіо # 1:
мова: українська
переклад: багатоголосий закадровий
кодек: 2.0
бітрейт: 192 кбіт/с

Аудіо # 2:
мова: українська
переклад: двоголосий закадровий
ролі озвучили: Михайло Тишин та Катерина Буцька
кодек: 2.0
бітрейт: 192 кбіт/с

Аудіо # 3:
мова: англійська
переклад: оригінал
кодек: 5.1
бітрейт: 768 кбіт/с

Аудіо # 4:
мова: англійська
переклад: коментарі акторів Джоді Фостер та Ебігейл Бреслін
кодек: OGG
бітрейт: 64 кбіт/с

Аудіо # 5:
мова: англійська
переклад: коментарі режисерів Дженніфер Флекетт та Марка Левіна
кодек: OGG
бітрейт: 64 кбіт/с

Субтитри # 1:
мова: українська
тип: програмні (м'які)
формат: *.srt

Субтитри # 2:
мова: англійська
тип: програмні (м'які)
формат: *.srt
MediaInfo
Код:
General
Unique ID                                : 219452826678505349724686614510111113054 (0xA51913B81C53780AA6814B53C4BD3F5E)
Complete name                            : Nim's Island (2008) [2xUkr,Eng sub.Ukr,Eng] 720p [Hurtom & HDClub].mkv
Format                                   : Matroska
Format version                           : Version 4 / Version 2
File size                                : 4.13 GiB
Duration                                 : 1h 36mn
Overall bit rate                         : 6 148 Kbps
Movie name                               : Nim's Island / Острів Нім (2008) 720p [Hurtom & HDClub]
Encoded date                             : UTC 2014-05-13 14:23:50
Writing application                      : mkvmerge v6.9.1 ('Blue Panther') 64bit built on Apr 18 2014 18:23:38
Writing library                          : libebml v1.3.0 + libmatroska v1.4.1
Attachment                               : Yes / Yes / Yes

Video
ID                                       : 1
Format                                   : AVC
Format/Info                              : Advanced Video Codec
Format profile                           : [email protected]
Format settings, CABAC                   : Yes
Format settings, ReFrames                : 12 frames
Format settings, GOP                     : N=1
Codec ID                                 : V_MPEG4/ISO/AVC
Duration                                 : 1h 36mn
Bit rate                                 : 4 877 Kbps
Width                                    : 1 280 pixels
Height                                   : 532 pixels
Display aspect ratio                     : 2.40:1
Frame rate mode                          : Constant
Frame rate                               : 23.976 fps
Color space                              : YUV
Chroma subsampling                       : 4:2:0
Bit depth                                : 8 bits
Scan type                                : Progressive
Bits/(Pixel*Frame)                       : 0.299
Stream size                              : 3.19 GiB (77%)
Title                                    : Nim's Island / Острів Нім / Остров Ним (2008) 720p [ESiR, HDClub-zackary]
Writing library                          : core 60 r877M c74a8e2
Encoding settings                        : cabac=1 / ref=12 / deblock=1:-3:-3 / analyse=0x3:0x133 / me=umh / subme=7 / me-prepass=0 / brdo=1 / mixed_ref=1 / me_range=45 / chroma_me=1 / trellis=0 / 8x8dct=1 / cqm=2 / deadzone=8,8 / chroma_qp_offset=0 / threads=6 / nr=0 / decimate=1 / mbaff=0 / fgo=8 / bframes=16 / b_pyramid=1 / b_adapt=1 / b_bias=0 / direct=3 / wpredb=1 / bime=1 / keyint=250 / keyint_min=25 / scenecut=40(pre) / rc=2pass / bitrate=4877 / ratetol=1.0 / rceq='blurCplx^(1-qComp)' / qcomp=1.00 / qpmin=10 / qpmax=51 / qpstep=4 / cplxblur=20.0 / qblur=0.5 / ip_ratio=1.40 / pb_ratio=1.16 / aq=2:0.80
Language                                 : English
Default                                  : Yes
Forced                                   : No

Audio #1
ID                                       : 2
Format                                   : AC-3
Format/Info                              : Audio Coding 3
Mode extension                           : CM (complete main)
Format settings, Endianness              : Big
Codec ID                                 : A_AC3
Duration                                 : 1h 36mn
Bit rate mode                            : Constant
Bit rate                                 : 192 Kbps
Channel(s)                               : 2 channels
Channel positions                        : Front: L R
Sampling rate                            : 48.0 KHz
Bit depth                                : 16 bits
Compression mode                         : Lossy
Delay relative to video                  : 25s 682ms
Stream size                              : 132 MiB (3%)
Title                                    : MVO [TET] 2.0 192 kbps [Hurtom-_oles] [+25682ms]
Language                                 : Ukrainian
Default                                  : Yes
Forced                                   : Yes

Audio #2
ID                                       : 3
Format                                   : AC-3
Format/Info                              : Audio Coding 3
Mode extension                           : CM (complete main)
Format settings, Endianness              : Big
Codec ID                                 : A_AC3
Duration                                 : 1h 36mn
Bit rate mode                            : Constant
Bit rate                                 : 192 Kbps
Channel(s)                               : 2 channels
Channel positions                        : Front: L R
Sampling rate                            : 48.0 KHz
Bit depth                                : 16 bits
Compression mode                         : Lossy
Delay relative to video                  : 25s 700ms
Stream size                              : 132 MiB (3%)
Title                                    : DVO [Novyj] 2.0 192 kbps [Hurtom-MutuLI] [+25700ms]
Language                                 : Ukrainian
Default                                  : No
Forced                                   : No

Audio #3
ID                                       : 4
Format                                   :
Format/Info                              : Digital Theater Systems
Mode                                     : 16
Format settings, Endianness              : Big
Codec ID                                 : A_DTS
Duration                                 : 1h 36mn
Bit rate mode                            : Constant
Bit rate                                 : 755 Kbps
Channel(s)                               : 6 channels
Channel positions                        : Front: L C R, Side: L R, LFE
Sampling rate                            : 48.0 KHz
Bit depth                                : 24 bits
Compression mode                         : Lossy
Stream size                              : 519 MiB (12%)
Title                                    : Original 5.1 768 kbps
Language                                 : English
Default                                  : No
Forced                                   : No

Audio #4
ID                                       : 5
Format                                   : Vorbis
Format settings, Floor                   : 1
Codec ID                                 : A_VORBIS
Duration                                 : 1h 36mn
Bit rate mode                            : Constant
Bit rate                                 : 64.0 Kbps
Minimum bit rate                         : 64.0 Kbps
Channel(s)                               : 2 channels
Sampling rate                            : 48.0 KHz
Compression mode                         : Lossy
Stream size                              : 44.0 MiB (1%)
Title                                    : Commentary#1 OGG 2.0 64kbps
Writing library                          : libVorbis 1.1.1/1.1.2 (UTC 2005-03-04)
Language                                 : English
Default                                  : No
Forced                                   : No

Audio #5
ID                                       : 6
Format                                   : Vorbis
Format settings, Floor                   : 1
Codec ID                                 : A_VORBIS
Duration                                 : 1h 36mn
Bit rate mode                            : Constant
Bit rate                                 : 64.0 Kbps
Minimum bit rate                         : 64.0 Kbps
Channel(s)                               : 2 channels
Sampling rate                            : 48.0 KHz
Compression mode                         : Lossy
Stream size                              : 44.0 MiB (1%)
Title                                    : Commentary#2 OGG 2.0 64kbps
Writing library                          : libVorbis 1.1.1/1.1.2 (UTC 2005-03-04)
Language                                 : English
Default                                  : No
Forced                                   : No

Text #1
ID                                       : 7
Format                                   : UTF-8
Codec ID                                 : S_TEXT/UTF8
Codec ID/Info                            : UTF-8 Plain Text
Title                                    : Ukr full
Language                                 : Ukrainian
Default                                  : No
Forced                                   : No

Text #2
ID                                       : 8
Format                                   : UTF-8
Codec ID                                 : S_TEXT/UTF8
Codec ID/Info                            : UTF-8 Plain Text
Title                                    : Eng full
Language                                 : English
Default                                  : No
Forced                                   : No




Джерела та подяки: &
ріп відео, оригінальний звук та всі субтитри - ESiR, zackary (HDClub); українські доріжки - _oles, MutuLI - зведення, xSlim, andic, Sando7 - запис з ТБ; українські постери - zgryvus, ika1963 (всі - Гуртом)

Повернення на острів Нім / Return to Nim's Island (2013) 720p Ukr/Eng | sub Eng

Повернення на острів Нім / Return to Nim's Island (2013) 720p Ukr/Eng | sub Eng

Острів Нім, Повернення на острів Нім (Дилогія) / Nim's Island, Return to Nim's Island (Dilogy) (2008, 2013) 720p Ukr/Eng | sub Ukr/Eng

Альтернативні та оригінальні постери






повнорозмірні зображення відкриються по кліку (з натиснутим CTRL чи кліком середньою кнопкою мишки - у новій вкладці)


Жанр: сімейний, пригодницький, комедія
Країна: Австралія



Кінокомпанія: Nim's Island, Mazur / Kaplan Company, Pictures in Paradise, Walden Media
Режисер: Брендан Махер / Brendan Maher
Актори: Бінді Ірвін / Bindi Irwin, Тобі Воллейс / Toby Wallace, Джон Вотерс / John Waters, Метью Ліллард / Matthew Lillard, Джек Пірсон / Jack Pearson та інші

Сюжет:
14-річна Нім має намір будь-що захистити свій острів і його лісових мешканців від організаторів курорту та браконьєрів. Але тепер героїня розуміє, що у такій важкій справі, як порятунок її дому, вона не може розраховувати на допомогу лише одних тварин. Так у Нім з'являється друг - Едмунд, який втік на острів з материка...


Рейтинг MPAA: PG - рекомендується присутність батьків
Вікова категорія: 0+

Тривалість: 01:30:06
Якість: 720p
Відео:
кодек:
розмір кадру: 1280х720
бітрейт: 5407 Кбіт/с

Аудіо # 1:
мова: українська
переклад: багатоголосий закадровий
кодек: 2.0
бітрейт: 192 Кбіт/с

Аудіо # 2:
мова: англійська
переклад: оригінал
кодек: 5.1
бітрейт: 1509 Кбіт/с

Субтитри # 1:
мова: англійська
тип: програмні (м'які)
формат: *.srt
MediaInfo
Код:
Complete name               : Return to Nim's Island (2013) [Ukr,Eng sub.Eng] 720p [Hurtom].mkv
Format                      : Matroska
Format version              : Version 4 / Version 2
File size                   : 4.46 GiB
Duration                    : 1h 30mn
Overall bit rate            : 7 087 Kbps
Movie name                  : Повернення на острів Нім / Return to Nim's Island (2013) [Ukr,Eng sub.Eng] 720p [Hurtom] by igor911 https://toloka.to/t56154
Encoded date                : UTC 2016-05-02 08:03:11
Writing application         : mkvmerge v9.1.0 ('Little Earthquakes') 64bit
Writing library             : libebml v1.3.3 + libmatroska v1.4.4
Cover                       : Yes
Attachments                 : cover.jpg

Video
ID                          : 1
Format                      : AVC
Format/Info                 : Advanced Video Codec
Format profile              : [email protected]
Format settings, CABAC      : Yes
Format settings, ReFrames   : 5 frames
Codec ID                    : V_MPEG4/ISO/AVC
Duration                    : 1h 30mn
Bit rate                    : 5 407 Kbps
Width                       : 1 280 pixels
Height                      : 720 pixels
Display aspect ratio        : 16:9
Frame rate mode             : Constant
Frame rate                  : 23.976 (24000/1001) fps
Color space                 : YUV
Chroma subsampling          : 4:2:0
Bit depth                   : 8 bits
Scan type                   : Progressive
Bits/(Pixel*Frame)          : 0.245
Stream size                 : 3.39 GiB (76%)
Title                       : Повернення на острів Нім / Return to Nim's Island (2013) 720p [PublicHD-PFa]
Writing library             : core 133 r2334 a3ac64b
Encoding settings           : cabac=1 / ref=5 / deblock=1:0:0 / analyse=0x3:0x133 / me=umh / subme=8 / psy=1 / psy_rd=1.00:0.00 / mixed_ref=1 / me_range=16 / chroma_me=1 / trellis=1 / 8x8dct=1 / cqm=0 / deadzone=21,11 / fast_pskip=0 / chroma_qp_offset=-2 / threads=12 / lookahead_threads=2 / sliced_threads=0 / nr=0 / decimate=1 / interlaced=0 / bluray_compat=0 / constrained_intra=0 / bframes=3 / b_pyramid=2 / b_adapt=1 / b_bias=0 / direct=1 / weightb=1 / open_gop=0 / weightp=2 / keyint=250 / keyint_min=23 / scenecut=40 / intra_refresh=0 / rc_lookahead=40 / rc=2pass / mbtree=1 / bitrate=5407 / ratetol=1.0 / qcomp=0.60 / qpmin=0 / qpmax=69 / qpstep=4 / cplxblur=20.0 / qblur=0.5 / ip_ratio=1.40 / aq=1:1.00
Language                    : English
Default                     : Yes
Forced                      : No

Audio #1
ID                          : 2
Format                      : AC-3
Format/Info                 : Audio Coding 3
Mode extension              : CM (complete main)
Format settings, Endianness : Big
Codec ID                    : A_AC3
Duration                    : 1h 30mn
Bit rate mode               : Constant
Bit rate                    : 192 Kbps
Channel(s)                  : 2 channels
Channel positions           : Front: L R
Sampling rate               : 48.0 KHz
Frame rate                  : 31.250 fps (1536 spf)
Compression mode            : Lossy
Stream size                 : 124 MiB (3%)
Title                       : MVO [TET] 2.0 192 kbps [Hurtom-krigg070]
Language                    : Ukrainian
Default                     : Yes
Forced                      : No

Audio #2
ID                          : 3
Format                      :
Format/Info                 : Digital Theater Systems
Mode                        : 16
Format settings, Endianness : Big
Codec ID                    : A_DTS
Duration                    : 1h 30mn
Bit rate mode               : Constant
Bit rate                    : 1 509 Kbps
Channel(s)                  : 6 channels
Channel positions           : Front: L C R, Side: L R, LFE
Sampling rate               : 48.0 KHz
Frame rate                  : 93.750 fps (512 spf)
Bit depth                   : 16 bits
Compression mode            : Lossy
Delay relative to video     : 11ms
Stream size                 : 973 MiB (21%)
Title                       : Original, 5.1 1509 kbps
Language                    : English
Default                     : No
Forced                      : No

Text
ID                          : 4
Format                      : UTF-8
Codec ID                    : S_TEXT/UTF8
Codec ID/Info               : UTF-8 Plain Text
Duration                    : 1h 23mn
Bit rate                    : 63 bps
Count of elements           : 1136
Stream size                 : 39.0 KiB (0%)
Language                    : English
Default                     : No
Forced                      : No




Джерела та подяки: &
українська доріжка - krigg070
Особиста оцінка: 8 - рекомендую всім дітям та їх батькам



ЗАЛИШАЙТЕСЬ ЯКОМОГА ДОВШЕ НА РОЗДАЧІ!
СКАЧАВ САМ - ДАЙ СКАЧАТИ ІНШИМ


Бронзовий реліз (на рейтинг впливає 75% завантаженого)
 Трекер:    Зареєстрований   

Завантажити / скачати фільм українською



відео для новачків



 Зареєстрований:   2016-05-02 13:11
 Розмір:   8.59 GB 
 Оцінка фільму:   6/10 (Голосів: 24)
   
Borysfen 
Новенький


З нами з: 14.01.12
Востаннє: 02.12.16
Повідомлень: 19

2014-12-05 14:45  
Моїй донці (5 р.) сподобалось.
Anonymous 







2016-05-02 13:56  
Оновив реліз до дилогії - додав другу частину.
Прохання перезавантажити та підтримати реліз!

(В кого є перша частина:
- створіть теку "Nim's Island. Dilogy (2008,2013) 720p [Hurtom]" (без лапок),
- перенесіть в неї файл першої частини,
- завантажте новий торрент і вкажіть місце, де знаходиться нова тека (не заходячи в неї) - довантажиться лише друга частина)


Додано через 39 хвилин 3 секунди:

Запланований на 30.05.2013 прокат другої частини в українських кінотеатрах було скасовано.

EvGaS 
Відео Гуртом - підтримка та поширення
Відео Гуртом - підтримка та поширення


З нами з: 27.02.12
Востаннє: 07.12.16
Повідомлень: 2128

2016-05-02 14:07  
igor911
Ненадовго підтримаю.

igor911 написано:
Дівчинка на ім'я Нім живе на віддаленому острові зі своїм батьком. Її друзі - це ігуана Фред, морський лев Селкі, черепаха Чіка та супутникова тарілка для виходу в Інтернет.

Я теж хочу тропічний острів та супутникову тарілку! )))

Ваш часовий пояс: GMT + 2 Години

Нова тема   Відповісти