Завантажити та скачати торренти українською


Брама часу (14 випусків) (2011-2012)

Нові коментарі

Нова тема   Відповісти
Автор Повідомлення
Archimedes 
Поважний учасник


З нами з: 15.10.13
Востаннє: 25.07.16
Повідомлень: 156

2014-05-12 21:57  
Брама часу (14 випусків) (2011-2012)

Брама часу (14 випусків) (2011-2012)


Жанр: Науково-розважальна програма
Країна: Україна

Телеканал / кіностудія: «Інтер»
Ведучий: Дмитро Овечкін
Режисер: Олег та Світлана Карнасюк
Актори: різні люди (очевидці, експерти та гості студії)...

Сюжет:
Відкрийте для себе нове об'ємне бачення України на карті світової історії. Ведучий Дмитро Овечкін та творці проекту "Брама часу" надають неймовірні історичні факти, не вказані в офіційних джерелах. Секретні архіви, закрита документація, свідчення очевидців проллють світло на наше минуле.
Перелік випусків
1. Брама часу - 2012. код Апокаліпсису
2. Брама часу - Арійський стандарт
3. Брама часу - Атака магії
4. Брама часу - Бранці Землі
5. Брама часу - Влада грошей
6. Брама часу - Машина часу
7. Брама часу - НЛО. ціна прогресу
8. Брама часу - Привиди. неоголошений візит
9. Брама часу - Реінкарнація
10. Брама часу - Секрети справжніх чоловіків
11. Брама часу - Сексуальні війни
12. Брама часу - Страх смерті
13. Брама часу - Таємні ордени. Український слід
14. Брама часу - У пошуках безсмертя
Тривалість: 14 x ~ 00:45:00
Якість:
Відео:
кодек: AVC (MPEG-4)
розмір кадру: 704 x 528
бітрейт: 1067 кб/с

Аудіо:
мова: українська / російська
переклад: оригінал
кодек: 2.0
бітрейт: 125 кб/с
MediaInfo
Полное имя : \Брама часу (2011-2012) [Hurtom]\Брама часу - 2012. код Апокаліпсису.flv
Формат : Flash Video
Размер файла : 339 Мбайт
Продолжительность : 44 м.
Общий поток : 1067 Кбит/сек
Дата пометки : UTC 2011-10-06 15:37:08
Пометившая программа : flvtool++ (Facebook, Motion project, dweatherford)

Видео
Формат : AVC
Формат/Информация : Advanced Video Codec
Профиль формата : [email protected]
Параметр CABAC формата : Да
Параметр ReFrames формата : 4 кадра
Идентификатор кодека : 7
Продолжительность : 44 м.
Битрейт : 907 Кбит/сек
Ширина : 704 пикселя
Высота : 528 пикселей
Соотношение сторон : 4:3
Режим частоты кадров : Постоянный
Частота кадров : 25,000 кадров/сек
Цветовое пространство : YUV
Субдискретизация насыщенности : 4:2:0
Битовая глубина : 8 бит
Тип развёртки : Прогрессивная
Бит/(Пиксели*Кадры) : 0.098
Размер потока : 295 Мбайт (87%)

Аудио
Формат :
Формат/Информация : Advanced Audio Codec
Профиль формата : LC
Идентификатор кодека : 10
Продолжительность : 44 м.
Битрейт : 125 Кбит/сек
Каналы : 2 канала
Расположение каналов : Front: L R
Частота : 44,1 КГц
Метод сжатия : С потерями
Задержка видео : 80 мс.
Размер потока : 40,9 Мбайт (12%)

Общее
Полное имя : \Брама часу (2011-2012) [Hurtom]\Брама часу - Арійський стандарт.flv
Формат : Flash Video
Размер файла : 336 Мбайт
Продолжительность : 44 м.
Общий поток : 1067 Кбит/сек
Дата пометки : UTC 2012-03-19 09:50:10
Пометившая программа : flvtool++ (Facebook, Motion project, dweatherford)

Видео
Формат : AVC
Формат/Информация : Advanced Video Codec
Профиль формата : [email protected]
Параметр CABAC формата : Да
Параметр ReFrames формата : 4 кадра
Идентификатор кодека : 7
Продолжительность : 44 м.
Битрейт : 907 Кбит/сек
Ширина : 704 пикселя
Высота : 528 пикселей
Соотношение сторон : 4:3
Режим частоты кадров : Постоянный
Частота кадров : 25,000 кадров/сек
Цветовое пространство : YUV
Субдискретизация насыщенности : 4:2:0
Битовая глубина : 8 бит
Тип развёртки : Прогрессивная
Бит/(Пиксели*Кадры) : 0.098
Размер потока : 293 Мбайт (87%)

Аудио
Формат :
Формат/Информация : Advanced Audio Codec
Профиль формата : LC
Идентификатор кодека : 10
Продолжительность : 44 м.
Битрейт : 125 Кбит/сек
Каналы : 2 канала
Расположение каналов : Front: L R
Частота : 44,1 КГц
Метод сжатия : С потерями
Задержка видео : 80 мс.
Размер потока : 40,6 Мбайт (12%)

Общее
Полное имя : \Брама часу (2011-2012) [Hurtom]\Брама часу - Атака магії.flv
Формат : Flash Video
Размер файла : 326 Мбайт
Продолжительность : 42 м.
Общий поток : 1067 Кбит/сек
Дата пометки : UTC 2012-03-19 20:56:53
Пометившая программа : flvtool++ (Facebook, Motion project, dweatherford)

Видео
Формат : AVC
Формат/Информация : Advanced Video Codec
Профиль формата : [email protected]
Параметр CABAC формата : Да
Параметр ReFrames формата : 4 кадра
Идентификатор кодека : 7
Продолжительность : 42 м.
Битрейт : 907 Кбит/сек
Ширина : 704 пикселя
Высота : 528 пикселей
Соотношение сторон : 4:3
Режим частоты кадров : Постоянный
Частота кадров : 25,000 кадров/сек
Цветовое пространство : YUV
Субдискретизация насыщенности : 4:2:0
Битовая глубина : 8 бит
Тип развёртки : Прогрессивная
Бит/(Пиксели*Кадры) : 0.098
Размер потока : 284 Мбайт (87%)

Аудио
Формат :
Формат/Информация : Advanced Audio Codec
Профиль формата : LC
Идентификатор кодека : 10
Продолжительность : 42 м.
Битрейт : 125 Кбит/сек
Каналы : 2 канала
Расположение каналов : Front: L R
Частота : 44,1 КГц
Метод сжатия : С потерями
Задержка видео : 80 мс.
Размер потока : 39,3 Мбайт (12%)

Общее
Полное имя : \Брама часу (2011-2012) [Hurtom]\Брама часу - Бранці Землі.flv
Формат : Flash Video
Размер файла : 325 Мбайт
Продолжительность : 42 м.
Общий поток : 1067 Кбит/сек
Дата пометки : UTC 2012-03-19 21:09:10
Пометившая программа : flvtool++ (Facebook, Motion project, dweatherford)

Видео
Формат : AVC
Формат/Информация : Advanced Video Codec
Профиль формата : [email protected]
Параметр CABAC формата : Да
Параметр ReFrames формата : 4 кадра
Идентификатор кодека : 7
Продолжительность : 42 м.
Битрейт : 907 Кбит/сек
Ширина : 704 пикселя
Высота : 528 пикселей
Соотношение сторон : 1,222
Режим частоты кадров : Постоянный
Частота кадров : 25,000 кадров/сек
Цветовое пространство : YUV
Субдискретизация насыщенности : 4:2:0
Битовая глубина : 8 бит
Тип развёртки : Прогрессивная
Бит/(Пиксели*Кадры) : 0.098
Размер потока : 283 Мбайт (87%)

Аудио
Формат :
Формат/Информация : Advanced Audio Codec
Профиль формата : LC
Идентификатор кодека : 10
Продолжительность : 42 м.
Битрейт : 125 Кбит/сек
Каналы : 2 канала
Расположение каналов : Front: L R
Частота : 44,1 КГц
Метод сжатия : С потерями
Задержка видео : 80 мс.
Размер потока : 39,2 Мбайт (12%)

Общее
Полное имя : \Брама часу (2011-2012) [Hurtom]\Брама часу - Влада грошей.flv
Формат : Flash Video
Размер файла : 343 Мбайт
Продолжительность : 44 м.
Общий поток : 1067 Кбит/сек
Дата пометки : UTC 2012-03-19 22:16:31
Пометившая программа : flvtool++ (Facebook, Motion project, dweatherford)

Видео
Формат : AVC
Формат/Информация : Advanced Video Codec
Профиль формата : [email protected]
Параметр CABAC формата : Да
Параметр ReFrames формата : 4 кадра
Идентификатор кодека : 7
Продолжительность : 44 м.
Битрейт : 907 Кбит/сек
Ширина : 704 пикселя
Высота : 528 пикселей
Соотношение сторон : 4:3
Режим частоты кадров : Постоянный
Частота кадров : 25,000 кадров/сек
Цветовое пространство : YUV
Субдискретизация насыщенности : 4:2:0
Битовая глубина : 8 бит
Тип развёртки : Прогрессивная
Бит/(Пиксели*Кадры) : 0.098
Размер потока : 299 Мбайт (87%)

Аудио
Формат :
Формат/Информация : Advanced Audio Codec
Профиль формата : LC
Идентификатор кодека : 10
Продолжительность : 44 м.
Битрейт : 125 Кбит/сек
Каналы : 2 канала
Расположение каналов : Front: L R
Частота : 44,1 КГц
Метод сжатия : С потерями
Задержка видео : 80 мс.
Размер потока : 41,3 Мбайт (12%)

Общее
Полное имя : \Брама часу (2011-2012) [Hurtom]\Брама часу - Машина часу.flv
Формат : Flash Video
Размер файла : 317 Мбайт
Продолжительность : 43 м.
Общий поток : 1015 Кбит/сек
Дата пометки : UTC 2012-03-19 20:53:05
Пометившая программа : flvtool++ (Facebook, Motion project, dweatherford)

Видео
Формат : AVC
Формат/Информация : Advanced Video Codec
Профиль формата : [email protected]
Параметр CABAC формата : Да
Параметр ReFrames формата : 4 кадра
Идентификатор кодека : 7
Продолжительность : 43 м.
Битрейт : 907 Кбит/сек
Ширина : 704 пикселя
Высота : 528 пикселей
Соотношение сторон : 4:3
Режим частоты кадров : Постоянный
Частота кадров : 25,000 кадров/сек
Цветовое пространство : YUV
Субдискретизация насыщенности : 4:2:0
Битовая глубина : 8 бит
Тип развёртки : Прогрессивная
Бит/(Пиксели*Кадры) : 0.098
Размер потока : 290 Мбайт (92%)

Аудио
Формат :
Формат/Информация : Advanced Audio Codec
Профиль формата : LC
Идентификатор кодека : 10
Продолжительность : 43 м.
Битрейт : 125 Кбит/сек
Каналы : 2 канала
Channel(s)_Original : 1 канал
Расположение каналов : Front: C
Частота : 44,1 КГц
Метод сжатия : С потерями
Задержка видео : 80 мс.
Размер потока : 23,9 Мбайт (8%)

Общее
Полное имя : \Брама часу (2011-2012) [Hurtom]\Брама часу - НЛО. ціна прогресу.flv
Формат : Flash Video
Размер файла : 336 Мбайт
Продолжительность : 44 м.
Общий поток : 1067 Кбит/сек
Дата пометки : UTC 2012-03-19 21:40:08
Пометившая программа : flvtool++ (Facebook, Motion project, dweatherford)

Видео
Формат : AVC
Формат/Информация : Advanced Video Codec
Профиль формата : [email protected]
Параметр CABAC формата : Да
Параметр ReFrames формата : 4 кадра
Идентификатор кодека : 7
Продолжительность : 44 м.
Битрейт : 907 Кбит/сек
Ширина : 704 пикселя
Высота : 528 пикселей
Соотношение сторон : 4:3
Режим частоты кадров : Постоянный
Частота кадров : 25,000 кадров/сек
Цветовое пространство : YUV
Субдискретизация насыщенности : 4:2:0
Битовая глубина : 8 бит
Тип развёртки : Прогрессивная
Бит/(Пиксели*Кадры) : 0.098
Размер потока : 293 Мбайт (87%)

Аудио
Формат :
Формат/Информация : Advanced Audio Codec
Профиль формата : LC
Идентификатор кодека : 10
Продолжительность : 44 м.
Битрейт : 125 Кбит/сек
Каналы : 2 канала
Расположение каналов : Front: L R
Частота : 44,1 КГц
Метод сжатия : С потерями
Задержка видео : 80 мс.
Размер потока : 40,6 Мбайт (12%)

Общее
Полное имя : \Брама часу (2011-2012) [Hurtom]\Брама часу - Привиди. неоголошений візит.flv
Формат : Flash Video
Размер файла : 343 Мбайт
Продолжительность : 44 м.
Общий поток : 1067 Кбит/сек
Дата пометки : UTC 2012-03-19 22:42:51
Пометившая программа : flvtool++ (Facebook, Motion project, dweatherford)

Видео
Формат : AVC
Формат/Информация : Advanced Video Codec
Профиль формата : [email protected]
Параметр CABAC формата : Да
Параметр ReFrames формата : 4 кадра
Идентификатор кодека : 7
Продолжительность : 44 м.
Битрейт : 907 Кбит/сек
Ширина : 704 пикселя
Высота : 528 пикселей
Соотношение сторон : 4:3
Режим частоты кадров : Постоянный
Частота кадров : 25,000 кадров/сек
Цветовое пространство : YUV
Субдискретизация насыщенности : 4:2:0
Битовая глубина : 8 бит
Тип развёртки : Прогрессивная
Бит/(Пиксели*Кадры) : 0.098
Размер потока : 299 Мбайт (87%)

Аудио
Формат :
Формат/Информация : Advanced Audio Codec
Профиль формата : LC
Идентификатор кодека : 10
Продолжительность : 44 м.
Битрейт : 125 Кбит/сек
Каналы : 2 канала
Расположение каналов : Front: L R
Частота : 44,1 КГц
Метод сжатия : С потерями
Задержка видео : 80 мс.
Размер потока : 41,4 Мбайт (12%)

Общее
Полное имя : \Брама часу (2011-2012) [Hurtom]\Брама часу - Реінкарнація.flv
Формат : Flash Video
Размер файла : 351 Мбайт
Продолжительность : 45 м.
Общий поток : 1067 Кбит/сек
Дата пометки : UTC 2012-03-19 23:20:33
Пометившая программа : flvtool++ (Facebook, Motion project, dweatherford)

Видео
Формат : AVC
Формат/Информация : Advanced Video Codec
Профиль формата : [email protected]
Параметр CABAC формата : Да
Параметр ReFrames формата : 4 кадра
Идентификатор кодека : 7
Продолжительность : 45 м.
Битрейт : 907 Кбит/сек
Ширина : 704 пикселя
Высота : 528 пикселей
Соотношение сторон : 4:3
Режим частоты кадров : Постоянный
Частота кадров : 25,000 кадров/сек
Цветовое пространство : YUV
Субдискретизация насыщенности : 4:2:0
Битовая глубина : 8 бит
Тип развёртки : Прогрессивная
Бит/(Пиксели*Кадры) : 0.098
Размер потока : 306 Мбайт (87%)

Аудио
Формат :
Формат/Информация : Advanced Audio Codec
Профиль формата : LC
Идентификатор кодека : 10
Продолжительность : 45 м.
Битрейт : 125 Кбит/сек
Каналы : 2 канала
Расположение каналов : Front: L R
Частота : 44,1 КГц
Метод сжатия : С потерями
Задержка видео : 80 мс.
Размер потока : 42,3 Мбайт (12%)

Общее
Полное имя : \Брама часу (2011-2012) [Hurtom]\Брама часу - Секрети справжніх чоловіків.flv
Формат : Flash Video
Размер файла : 345 Мбайт
Продолжительность : 45 м.
Общий поток : 1067 Кбит/сек
Дата пометки : UTC 2012-03-19 20:53:56
Пометившая программа : flvtool++ (Facebook, Motion project, dweatherford)

Видео
Формат : AVC
Формат/Информация : Advanced Video Codec
Профиль формата : [email protected]
Параметр CABAC формата : Да
Параметр ReFrames формата : 4 кадра
Идентификатор кодека : 7
Продолжительность : 45 м.
Битрейт : 907 Кбит/сек
Ширина : 704 пикселя
Высота : 528 пикселей
Соотношение сторон : 4:3
Режим частоты кадров : Постоянный
Частота кадров : 25,000 кадров/сек
Цветовое пространство : YUV
Субдискретизация насыщенности : 4:2:0
Битовая глубина : 8 бит
Тип развёртки : Прогрессивная
Бит/(Пиксели*Кадры) : 0.098
Размер потока : 300 Мбайт (87%)

Аудио
Формат :
Формат/Информация : Advanced Audio Codec
Профиль формата : LC
Идентификатор кодека : 10
Продолжительность : 45 м.
Битрейт : 125 Кбит/сек
Каналы : 2 канала
Расположение каналов : Front: L R
Частота : 44,1 КГц
Метод сжатия : С потерями
Задержка видео : 80 мс.
Размер потока : 41,6 Мбайт (12%)

Общее
Полное имя : \Брама часу (2011-2012) [Hurtom]\Брама часу - Сексуальні війни.flv
Формат : Flash Video
Размер файла : 346 Мбайт
Продолжительность : 45 м.
Общий поток : 1067 Кбит/сек
Дата пометки : UTC 2012-03-19 23:08:16
Пометившая программа : flvtool++ (Facebook, Motion project, dweatherford)

Видео
Формат : AVC
Формат/Информация : Advanced Video Codec
Профиль формата : [email protected]
Параметр CABAC формата : Да
Параметр ReFrames формата : 4 кадра
Идентификатор кодека : 7
Продолжительность : 45 м.
Битрейт : 907 Кбит/сек
Ширина : 704 пикселя
Высота : 528 пикселей
Соотношение сторон : 4:3
Режим частоты кадров : Постоянный
Частота кадров : 25,000 кадров/сек
Цветовое пространство : YUV
Субдискретизация насыщенности : 4:2:0
Битовая глубина : 8 бит
Тип развёртки : Прогрессивная
Бит/(Пиксели*Кадры) : 0.098
Размер потока : 302 Мбайт (87%)

Аудио
Формат :
Формат/Информация : Advanced Audio Codec
Профиль формата : LC
Идентификатор кодека : 10
Продолжительность : 45 м.
Битрейт : 125 Кбит/сек
Каналы : 2 канала
Расположение каналов : Front: L R
Частота : 44,1 КГц
Метод сжатия : С потерями
Задержка видео : 80 мс.
Размер потока : 41,8 Мбайт (12%)

Общее
Полное имя : \Брама часу (2011-2012) [Hurtom]\Брама часу - Страх смерті.flv
Формат : Flash Video
Размер файла : 337 Мбайт
Продолжительность : 44 м.
Общий поток : 1067 Кбит/сек
Дата пометки : UTC 2012-03-19 09:57:35
Пометившая программа : flvtool++ (Facebook, Motion project, dweatherford)

Видео
Формат : AVC
Формат/Информация : Advanced Video Codec
Профиль формата : [email protected]
Параметр CABAC формата : Да
Параметр ReFrames формата : 4 кадра
Идентификатор кодека : 7
Продолжительность : 44 м.
Битрейт : 907 Кбит/сек
Ширина : 704 пикселя
Высота : 528 пикселей
Соотношение сторон : 4:3
Режим частоты кадров : Постоянный
Частота кадров : 25,000 кадров/сек
Цветовое пространство : YUV
Субдискретизация насыщенности : 4:2:0
Битовая глубина : 8 бит
Тип развёртки : Прогрессивная
Бит/(Пиксели*Кадры) : 0.098
Размер потока : 294 Мбайт (87%)

Аудио
Формат :
Формат/Информация : Advanced Audio Codec
Профиль формата : LC
Идентификатор кодека : 10
Продолжительность : 44 м.
Битрейт : 125 Кбит/сек
Каналы : 2 канала
Расположение каналов : Front: L R
Частота : 44,1 КГц
Метод сжатия : С потерями
Задержка видео : 80 мс.
Размер потока : 40,6 Мбайт (12%)

Общее
Полное имя : \Брама часу (2011-2012) [Hurtom]\Брама часу - Таємні ордени. Український слід.flv
Формат : Flash Video
Размер файла : 142 Мбайт
Продолжительность : 44 м.
Общий поток : 450 Кбит/сек
Дата пометки : UTC 2012-03-19 07:57:21
Пометившая программа : flvtool++ (Facebook, Motion project, dweatherford)

Видео
Формат : AVC
Формат/Информация : Advanced Video Codec
Профиль формата : [email protected]
Параметр CABAC формата : Да
Параметр ReFrames формата : 4 кадра
Идентификатор кодека : 7
Продолжительность : 44 м.
Битрейт : 311 Кбит/сек
Ширина : 400 пикселей
Высота : 304 пикселя
Соотношение сторон : 16:9
Режим частоты кадров : Постоянный
Частота кадров : 25,000 кадров/сек
Цветовое пространство : YUV
Субдискретизация насыщенности : 4:2:0
Битовая глубина : 8 бит
Тип развёртки : Прогрессивная
Бит/(Пиксели*Кадры) : 0.102
Размер потока : 100 Мбайт (71%)

Аудио
Формат :
Формат/Информация : Advanced Audio Codec
Профиль формата : LC
Идентификатор кодека : 10
Продолжительность : 44 м.
Битрейт : 125 Кбит/сек
Каналы : 2 канала
Расположение каналов : Front: L R
Частота : 44,1 КГц
Метод сжатия : С потерями
Задержка видео : 80 мс.
Размер потока : 38,8 Мбайт (27%)

Общее
Полное имя : \Брама часу (2011-2012) [Hurtom]\Брама часу - У пошуках безсмертя.flv
Формат : Flash Video
Размер файла : 175 Мбайт
Продолжительность : 43 м.
Общий поток : 566 Кбит/сек
Дата пометки : UTC 2012-03-19 06:48:21
Пометившая программа : flvtool++ (Facebook, Motion project, dweatherford)

Видео
Формат : AVC
Формат/Информация : Advanced Video Codec
Профиль формата : [email protected]
Параметр CABAC формата : Да
Параметр ReFrames формата : 4 кадра
Идентификатор кодека : 7
Продолжительность : 43 м.
Битрейт : 480 Кбит/сек
Ширина : 512 пикселей
Высота : 384 пикселя
Соотношение сторон : 4:3
Режим частоты кадров : Постоянный
Частота кадров : 25,000 кадров/сек
Цветовое пространство : YUV
Субдискретизация насыщенности : 4:2:0
Битовая глубина : 8 бит
Тип развёртки : Прогрессивная
Бит/(Пиксели*Кадры) : 0.098
Размер потока : 153 Мбайт (87%)

Аудио
Формат :
Формат/Информация : Advanced Audio Codec
Профиль формата : LC
Идентификатор кодека : 10
Продолжительность : 43 м.
Битрейт : 62,5 Кбит/сек
Каналы : 2 канала
Расположение каналов : Front: L R
Частота : 44,1 КГц
Метод сжатия : С потерями
Задержка видео : 80 мс.
Размер потока : 20,0 Мбайт (11%)
Скріншоти

Джерело:
Додаткова інформація: http://inter.ua/uk/video/all/brama http://interplus.ua/uk/programs/social/brama_chasu
Особиста оцінка: 10 - без зайвих вагань рекомендую всім!


 Трекер:    Зареєстрований   

Завантажити / скачати фільм українською



відео для новачків



 Зареєстрований:   2014-05-12 21:57
 Розмір:   4.26 GB 
 Оцінка фільму:   9/10 (Голосів: 4)
   
Х-Хед 
VIP


З нами з: 06.05.12
Востаннє: 12.11.16
Повідомлень: 297

2014-05-13 17:31  
Ордени тамплієрів перетрансформувалися в козаків-характерників......Інтер в своєму репертуарі.
AngryBirdsUA 
Свій


З нами з: 24.02.10
Востаннє: 07.12.16
Повідомлень: 2846

2014-05-31 20:56  
Archimedes
Замініть Медіаінфо з українським інтерфейсом.

Ваш часовий пояс: GMT + 2 Години

Нова тема   Відповісти