Завантажити та скачати торренти українською


Ще один рік / Another Year (2010) 720p Eng | sub Ukr

Нові коментарі

Нова тема   Відповісти
Останній раз роздавалося sergg (2016-12-07)
Автор Повідомлення
antusyrzhuk 
Свій


З нами з: 09.06.09
Востаннє: 19.11.16
Повідомлень: 145

2014-05-11 10:14  
Ще один рік / Another Year (2010) 720p Eng | sub Ukr

Ще один рік / Another Year (2010) 720p Eng | sub Ukr


Жанр: комедія, драма
Країна: Великобританія



Кінокомпанія: Thin Man Films, Film4, Focus Features International (FFI)
Режисер: Майк Лі (Mike Leigh)
Актори: Джим Бродбент (Jim Broadbent), Рут Шин (Ruth Sheen), Леслі Менвілл (Lesley Manville), Олівер Молтмен (Oliver Maltman), Пітер Вайт (Peter Wight), Девід Бредлі (David Bradley) та ін.

Сюжет:
Рік із життя щасливого (хоч і немолодого) подружжя, яке оточують друзі, колеги й родичі, що певною мірою потерпають від нещастя.


Тривалість: 02:09:48
Якість:
Відео:
кодек:
розмір кадру: 1280 х 544
бітрейт: 4506 кб/с

Аудіо:
мова: англійська
переклад: оригінал
кодек: 5.1
бітрейт: 1509 кб/с

Субтитри:
мова: українська
тип: програмні (м'які)
формат: *.ass
переклад з оригіналу: antusyrzhuk за участі Sjanyk San
MediaInfo
Format : Matroska
Format version : Version 4 / Version 2
File size : 5.45 GiB
Duration : 2h 9mn
Overall bit rate : 6 016 Kbps
Movie name : Another Year*2010 /antusyrzhuk
Encoded date : UTC 2014-05-09 18:04:19
Writing application : mkvmerge v6.5.0 ('Isn't she lovely') built on Oct 20 2013 12:50:05
Writing library : libebml v1.3.0 + libmatroska v1.4.1

Video
ID : 1
Format : AVC
Format/Info : Advanced Video Codec
Format profile : [email protected]
Format settings, CABAC : Yes
Format settings, ReFrames : 5 frames
Codec ID : V_MPEG4/ISO/AVC
Duration : 2h 9mn
Bit rate : 4 506 Kbps
Width : 1 280 pixels
Height : 544 pixels
Display aspect ratio : 2.35:1
Frame rate mode : Constant
Frame rate : 23.976 fps
Color space : YUV
Chroma subsampling : 4:2:0
Bit depth : 8 bits
Scan type : Progressive
Bits/(Pixel*Frame) : 0.270
Stream size : 3.98 GiB (73%)
Writing library : core 115 r1995 c1e60b9
Encoding settings : cabac=1 / ref=5 / deblock=1:0:0 / analyse=0x3:0x133 / me=umh / subme=8 / psy=1 / psy_rd=1.00:0.00 / mixed_ref=1 / me_range=16 / chroma_me=1 / trellis=1 / 8x8dct=1 / cqm=0 / deadzone=21,11 / fast_pskip=0 / chroma_qp_offset=-2 / threads=18 / sliced_threads=0 / nr=0 / decimate=1 / interlaced=0 / bluray_compat=0 / constrained_intra=0 / bframes=3 / b_pyramid=2 / b_adapt=1 / b_bias=0 / direct=1 / weightb=1 / open_gop=0 / weightp=2 / keyint=240 / keyint_min=24 / scenecut=40 / intra_refresh=0 / rc_lookahead=40 / rc=2pass / mbtree=1 / bitrate=4506 / ratetol=1.0 / qcomp=0.60 / qpmin=0 / qpmax=69 / qpstep=4 / cplxblur=20.0 / qblur=0.5 / ip_ratio=1.40 / aq=1:1.00
Language : English
Default : No
Forced : No

Audio
ID : 2
Format :
Format/Info : Digital Theater Systems
Mode : 16
Format settings, Endianness : Big
Codec ID : A_DTS
Duration : 2h 9mn
Bit rate mode : Constant
Bit rate : 1 509 Kbps
Channel(s) : 6 channels
Channel positions : Front: L C R, Side: L R, LFE
Sampling rate : 48.0 KHz
Bit depth : 24 bits
Compression mode : Lossy
Stream size : 1.37 GiB (25%)
Language : English
Default : Yes
Forced : No

Text
ID : 3
Format : ASS
Codec ID : S_TEXT/ASS
Codec ID/Info : Advanced Sub Station Alpha
Compression mode : Lossless
Language : Ukrainian
Default : Yes
Forced : No
Скріншоти




Джерело: &
Особиста оцінка: 10 - без зайвих вагань рекомендую всім!


Золотий реліз (завантажене не впливає на рейтинг)
 Трекер:    Зареєстрований   

Завантажити / скачати фільм українською



відео для новачків



 Зареєстрований:   2014-05-11 10:14
 Розмір:   5.45 GB 
 Оцінка фільму:   8.5/10 (Голосів: 6)
   
maskaron 
Новенький


З нами з: 16.03.14
Востаннє: 03.12.16
Повідомлень: 3

2015-01-02 16:23  
Навіть не знаю що написати. Напевне не я одна, бо фільм тут з травня - і всі мовчать ))
Може тому, що це фільм без фільмовості. Є просто уривок ціноого досвіду щасливого подружжя, досвіду який шліфувався плином років. Є течія життя. Вона приносить і те чого не оминути, з чим можна лише змиритися, але і те, що прямо витікає зі світогляду, способу життя головних героїв - те на що герої можуть впливати. Останього значно більше, і завдяки цьому після перегляду залишається відчуття, що ти все таки господар свого життя. І разом з тим - ЛИШЕ СВОГО ЖИТТЯ.
Фльм залишає відчуття розміреності і спокою. В мене особисто виккликає бажання позайматися своєю рутиною. А ще філь не насичений конфліктами: є кілька сварок, та й усе. Дивилася, паралельно бавлячися з дітьми.
Якщо дуже коротко то філм про мудрих і немудрих дів. Переглядала не раз, і ще не раз буду.

Ваш часовий пояс: GMT + 2 Години

Нова тема   Відповісти