Завантажити та скачати торренти українською


Крізь сніг / Снігокол / Snowpiercer (2013) 720p 2xUkr/Eng | sub Ukr/Eng

Нові коментарі

Нова тема   Відповісти
Автор Повідомлення
BOOGud 
VIP


З нами з: 06.03.12
Востаннє: 11.11.16
Повідомлень: 907

2014-05-08 08:51  
Крізь сніг / Снігокол / Snowpiercer (2013) 720p 2xUkr/Eng | sub Ukr/Eng

Крізь сніг / Снігокол / Snowpiercer (2013) 720p 2xUkr/Eng | sub Ukr/Eng


Альтернативні постери














Жанр: екшн, фантастика, драма, бойовик
Країна: Південна Корея, США, Франція, Чехія



Кіностудія / кінокомпанія: SnowPiercer, Moho Films, Opus Pictures
Режисер: Пон Чжун Хо / Joon-ho Bong
Актори: Кріс Еванс / Chris Evans, Сон Кан Хо / Kang-ho Song, Тільда Свінтон / Tilda Swinton, Джеймі Белл / Jamie Bell, Октавія Спенсер / Octavia Spencer, Евен Бремнер / Ewen Bremner, Елісон Пілл / Alison Pill, Ко А Сон / Ah-sung Ko, Ед Харріс / Ed Harris, Джон Херт / John Hurt, Люк Паскуаліно / Luke Pasqualino

Сюжет:

У спробі протистояти глобальному потеплінню, населення Землі робить фатальну помилку, застосувавши небезпечну речовину для охолодження клімату. Після його застосування всі люди помирають від сильного холоду і вся поверхня планети замерзає. Життя залишилося лише у величезному поїзді, який мчить по магістралі, що проходить по всій земній кулі. Поїздом керує його винахідник – Вілфорд, який сконструював його ще до катаклізму. Перші вагони займає перший клас – правляча еліта, вони керують другим класом, який заселяє середню частину і в хвості поїзда їдуть в нелюдських умовах – недолюди, які після 17 років існування за межею вирішують повстати проти Вілфорда. Їх очолює Кьортіс, який прагне дійти з хвоста поїзда до локомотива і вбити Вілфорда.
.




Тривалість: 02:05:53
Якість:
Відео:
кодек:
розмір кадру: 1 280 x688
бітрейт: 4 697 кб/с

Аудіо # 1:
мова: українська
переклад: двоголосий закадровий |UAVoice
кодек: 5.1
бітрейт: 640 кб/с

Аудіо # 2:
мова: українська
переклад: одноголосий закадровий |BOOGud
кодек: 5.1
бітрейт: 640 кб/с

Аудіо # 3:
мова: англійська
переклад: оригінал
кодек: 5.1
бітрейт: 640 кб/с

Переклад : Ivan Vyrvyvuho
Редакція : Kyrylo Rudsky
Озвучення: Людмила Швець, Дмитро Урсуляк
Монтаж та робота зі звуком:Дмитро Урсуляк (BOOGud)
Об'ємний звук(5.1): BOOGud

Субтитри:
мова: українська | ivan vyrvyvuho
тип: програмні (м'які)
формат: *.srt

Субтитри:
мова: англійська
тип: програмні (м'які)
формат: *.srt

Трейлер


Скріншоти






























































MediaInfo


General
Unique ID : 239968623252031157213265137606494567995 (0xB4884695CFD1DA45B0E752A00108BE3B)
Complete name : I:\ozvuchka2\Snowpiercer.(2013)..720p.UAVoice.UKR.mkv
Format : Matroska
Format version : Version 4 / Version 2
File size : 6.58 GiB
Duration : 2h 5mn
Overall bit rate : 7 487 Kbps
Encoded date : UTC 2014-05-08 05:04:43
Writing application : mkvmerge v6.9.1 ('Blue Panther') 32bit built on Apr 18 2014 18:15:44
Writing library : libebml v1.3.0 + libmatroska v1.4.1

Video
ID : 1
Format : AVC
Format/Info : Advanced Video Codec
Format profile : [email protected]
Format settings, CABAC : Yes
Format settings, ReFrames : 5 frames
Codec ID : V_MPEG4/ISO/AVC
Duration : 2h 5mn
Bit rate : 4 697 Kbps
Width : 1 280 pixels
Height : 688 pixels
Display aspect ratio : 1.85:1
Frame rate mode : Constant
Frame rate : 23.976 fps
Color space : YUV
Chroma subsampling : 4:2:0
Bit depth : 8 bits
Scan type : Progressive
Bits/(Pixel*Frame) : 0.222
Stream size : 4.00 GiB (61%)
Writing library : core 142 r2409 d6b4e63
Encoding settings : cabac=1 / ref=5 / deblock=1:0:0 / analyse=0x3:0x113 / me=umh / subme=8 / psy=1 / psy_rd=1.00:0.00 / mixed_ref=1 / me_range=16 / chroma_me=1 / trellis=1 / 8x8dct=1 / cqm=0 / deadzone=21,11 / fast_pskip=1 / chroma_qp_offset=-2 / threads=18 / lookahead_threads=3 / sliced_threads=0 / nr=0 / decimate=1 / interlaced=0 / bluray_compat=0 / constrained_intra=0 / bframes=3 / b_pyramid=2 / b_adapt=2 / b_bias=0 / direct=3 / weightb=1 / open_gop=0 / weightp=2 / keyint=240 / keyint_min=24 / scenecut=40 / intra_refresh=0 / rc_lookahead=50 / rc=2pass / mbtree=1 / bitrate=4697 / ratetol=1.0 / qcomp=0.60 / qpmin=0 / qpmax=69 / qpstep=4 / cplxblur=20.0 / qblur=0.5 / ip_ratio=1.40 / aq=1:1.00
Language : English
Default : Yes
Forced : No

Audio #1
ID : 2
Format : AC-3
Format/Info : Audio Coding 3
Mode extension : CM (complete main)
Format settings, Endianness : Big
Codec ID : A_AC3
Duration : 2h 5mn
Bit rate mode : Constant
Bit rate : 640 Kbps
Channel count : 6 channels
Channel positions : Front: L C R, Side: L R, LFE
Sampling rate : 48.0 KHz
Bit depth : 16 bits
Compression mode : Lossy
Stream size : 576 MiB (9%)
Title : Ukr_UAVoice_DVO_640
Default : Yes
Forced : No

Audio #2
ID : 3
Format : AC-3
Format/Info : Audio Coding 3
Mode extension : CM (complete main)
Format settings, Endianness : Big
Codec ID : A_AC3
Duration : 2h 5mn
Bit rate mode : Constant
Bit rate : 640 Kbps
Channel count : 6 channels
Channel positions : Front: L C R, Side: L R, LFE
Sampling rate : 48.0 KHz
Bit depth : 16 bits
Compression mode : Lossy
Stream size : 576 MiB (9%)
Title : UKR_VO_640
Language : Ukrainian
Default : No
Forced : No

Audio #3
ID : 4
Format :
Format/Info : Digital Theater Systems
Mode : 16
Format settings, Endianness : Big
Codec ID : A_DTS
Duration : 2h 5mn
Bit rate mode : Constant
Bit rate : 1 509 Kbps
Channel count : 6 channels
Channel positions : Front: L C R, Side: L R, LFE
Sampling rate : 48.0 KHz
Bit depth : 24 bits
Compression mode : Lossy
Stream size : 1.33 GiB (20%)
Title : Eng
Language : English
Default : No
Forced : No

Text #1
ID : 5
Format : UTF-8
Codec ID : S_TEXT/UTF8
Codec ID/Info : UTF-8 Plain Text
Title : Ukr
Language : Ukrainian
Default : No
Forced : No

Text #2
ID : 6
Format : UTF-8
Codec ID : S_TEXT/UTF8
Codec ID/Info : UTF-8 Plain Text
Title : Eng
Language : English
Default : No
Forced : No
перші 10хв фільму/семпл
Семпл онлайн




Джерело: & ua-torrent.com & uavoice.com
Особиста оцінка: 10 - шикарний фільм!


Авторський реліз (завантажувати можна без реєстрації)
 Трекер:    Зареєстрований   

Завантажити / скачати фільм українською



відео для новачків



 Зареєстрований:   2014-05-08 08:55
 Розмір:   6.58 GB 
 Оцінка фільму:   9.8/10 (Голосів: 16)
 uavoice.com
   
Ваш часовий пояс: GMT + 2 Години

Нова тема   Відповісти