Завантажити та скачати торренти українською


Крізь сніг / Снігокол / Snowpiercer (2013) 1080p 2xUkr/Eng | sub Ukr/Eng

Нові коментарі

Нова тема   Відповісти
Автор Повідомлення
BOOGud 
VIP


З нами з: 06.03.12
Востаннє: 11.11.16
Повідомлень: 907

2014-05-08 08:32  
Крізь сніг / Снігокол / Snowpiercer (2013) 1080p 2xUkr/Eng | sub Ukr/Eng

Крізь сніг / Снігокол / Snowpiercer (2013) 1080p 2xUkr/Eng | sub Ukr/Eng


Альтернативні постери














Жанр: екшн, фантастика, драма, бойовик
Країна: Південна Корея, США, Франція, Чехія



Кіностудія / кінокомпанія: SnowPiercer, Moho Films, Opus Pictures
Режисер: Пон Чжун Хо / Joon-ho Bong
Актори: Кріс Еванс / Chris Evans, Сон Кан Хо / Kang-ho Song, Тільда Свінтон / Tilda Swinton, Джеймі Белл / Jamie Bell, Октавія Спенсер / Octavia Spencer, Евен Бремнер / Ewen Bremner, Елісон Пілл / Alison Pill, Ко А Сон / Ah-sung Ko, Ед Харріс / Ed Harris, Джон Херт / John Hurt, Люк Паскуаліно / Luke Pasqualino

Сюжет:

У спробі протистояти глобальному потеплінню, населення Землі робить фатальну помилку, застосувавши небезпечну речовину для охолодження клімату. Після його застосування всі люди помирають від сильного холоду і вся поверхня планети замерзає. Життя залишилося лише у величезному поїзді, який мчить по магістралі, що проходить по всій земній кулі. Поїздом керує його винахідник – Вілфорд, який сконструював його ще до катаклізму. Перші вагони займає перший клас – правляча еліта, вони керують другим класом, який заселяє середню частину і в хвості поїзда їдуть в нелюдських умовах – недолюди, які після 17 років існування за межею вирішують повстати проти Вілфорда. Їх очолює Кьортіс, який прагне дійти з хвоста поїзда до локомотива і вбити Вілфорда.
.




Тривалість: 02:05:53
Якість:
Відео:
кодек:
розмір кадру: 1 920 x 1036
бітрейт: 9 865 кб/с

Аудіо # 1:
мова: українська
переклад: двоголосий закадровий |UAVoice
кодек: 5.1
бітрейт: 640 кб/с

Аудіо # 2:
мова: українська
переклад: одноголосий закадровий |BOOGud
кодек: 5.1
бітрейт: 640 кб/с

Аудіо # 3:
мова: англійська
переклад: оригінал
кодек: 5.1
бітрейт: 640 кб/с

Переклад : Ivan Vyrvyvuho
Редакція : Kyrylo Rudsky
Озвучення: Людмила Швець, Дмитро Урсуляк
Монтаж та робота зі звуком:Дмитро Урсуляк (BOOGud)
Об'ємний звук(5.1): BOOGud

Субтитри:
мова: українська | ivan vyrvyvuho
тип: програмні (м'які)
формат: *.srt

Субтитри:
мова: англійська
тип: програмні (м'які)
формат: *.srt

Трейлер


Скріншоти
















































































MediaInfo


General
Unique ID : 236109183123833990506185508161814626408 (0xB1A0F97EE187FC0F896117EE9B4D8068)
Complete name : J:\Ozvuchka4\Snowpiercer.(2013)..1080p.UAVoice.UKR.mkv
Format : Matroska
Format version : Version 4 / Version 2
File size : 10.4 GiB
Duration : 2h 5mn
Overall bit rate : 11.8 Mbps
Encoded date : UTC 2014-05-08 04:37:46
Writing application : mkvmerge v6.9.1 ('Blue Panther') 32bit built on Apr 18 2014 18:15:44
Writing library : libebml v1.3.0 + libmatroska v1.4.1

Video
ID : 1
Format : AVC
Format/Info : Advanced Video Codec
Format profile : [email protected]
Format settings, CABAC : Yes
Format settings, ReFrames : 4 frames
Codec ID : V_MPEG4/ISO/AVC
Duration : 2h 5mn
Bit rate : 9 865 Kbps
Width : 1 920 pixels
Height : 1 036 pixels
Display aspect ratio : 1.85:1
Frame rate mode : Constant
Frame rate : 23.976 fps
Color space : YUV
Chroma subsampling : 4:2:0
Bit depth : 8 bits
Scan type : Progressive
Bits/(Pixel*Frame) : 0.207
Stream size : 8.47 GiB (82%)
Writing library : core 138 r2356 a1d3d17
Encoding settings : cabac=1 / ref=4 / deblock=1:-3:-3 / analyse=0x3:0x113 / me=umh / subme=10 / psy=1 / psy_rd=1.00:0.05 / mixed_ref=1 / me_range=32 / chroma_me=1 / trellis=2 / 8x8dct=1 / cqm=0 / deadzone=21,11 / fast_pskip=0 / chroma_qp_offset=-2 / threads=18 / lookahead_threads=1 / sliced_threads=0 / nr=0 / decimate=1 / interlaced=0 / bluray_compat=0 / constrained_intra=0 / bframes=6 / b_pyramid=2 / b_adapt=2 / b_bias=0 / direct=3 / weightb=1 / open_gop=0 / weightp=2 / keyint=250 / keyint_min=23 / scenecut=40 / intra_refresh=0 / rc=2pass / mbtree=0 / bitrate=9865 / ratetol=1.0 / qcomp=0.70 / qpmin=0 / qpmax=69 / qpstep=4 / cplxblur=20.0 / qblur=0.5 / ip_ratio=1.40 / pb_ratio=1.30 / aq=2:0.90
Language : English
Default : Yes
Forced : No

Audio #1
ID : 2
Format : AC-3
Format/Info : Audio Coding 3
Mode extension : CM (complete main)
Format settings, Endianness : Big
Codec ID : A_AC3
Duration : 2h 5mn
Bit rate mode : Constant
Bit rate : 640 Kbps
Channel count : 6 channels
Channel positions : Front: L C R, Side: L R, LFE
Sampling rate : 48.0 KHz
Bit depth : 16 bits
Compression mode : Lossy
Stream size : 576 MiB (5%)
Title : UKR_UAVoive_DVO_640
Language : Ukrainian
Default : Yes
Forced : No

Audio #2
ID : 3
Format : AC-3
Format/Info : Audio Coding 3
Mode extension : CM (complete main)
Format settings, Endianness : Big
Codec ID : A_AC3
Duration : 2h 5mn
Bit rate mode : Constant
Bit rate : 640 Kbps
Channel count : 6 channels
Channel positions : Front: L C R, Side: L R, LFE
Sampling rate : 48.0 KHz
Bit depth : 16 bits
Compression mode : Lossy
Stream size : 576 MiB (5%)
Title : UKR_VO
Language : Ukrainian
Default : No
Forced : No

Audio #3
ID : 4
Format : AC-3
Format/Info : Audio Coding 3
Mode extension : CM (complete main)
Format settings, Endianness : Big
Codec ID : A_AC3
Duration : 2h 5mn
Bit rate mode : Constant
Bit rate : 640 Kbps
Channel count : 6 channels
Channel positions : Front: L C R, Side: L R, LFE
Sampling rate : 48.0 KHz
Bit depth : 16 bits
Compression mode : Lossy
Stream size : 576 MiB (5%)
Title : Eng | | 640 Kbps
Language : English
Default : No
Forced : No

Text #1
ID : 5
Format : UTF-8
Codec ID : S_TEXT/UTF8
Codec ID/Info : UTF-8 Plain Text
Title : Ukr
Language : Ukrainian
Default : No
Forced : No

Text #2
ID : 6
Format : UTF-8
Codec ID : S_TEXT/UTF8
Codec ID/Info : UTF-8 Plain Text
Title : Eng
Language : English
Default : No
Forced : No

Menu
00:00:00.000 : :00:00:00.000
00:08:34.931 : :00:08:34.931
00:21:25.534 : :00:21:25.534
00:29:13.877 : :00:29:13.877
00:39:08.513 : :00:39:08.513
00:47:23.549 : :00:47:23.549
00:56:42.566 : :00:56:42.566
01:06:52.634 : :01:06:52.634
01:15:16.554 : :01:15:16.554
01:23:46.605 : :01:23:46.605
01:36:24.112 : :01:36:24.112
01:52:12.726 : :01:52:12.726
02:05:52.712 : :02:05:52.712
перші 10хв фільму/семпл
Семпл онлайн




Джерело: & ua-torrent.com & uavoice.com
Особиста оцінка: 10 - шикарний фільм!


Авторський реліз (завантажувати можна без реєстрації)
 Трекер:    Зареєстрований   

Завантажити / скачати фільм українською



відео для новачків



 Зареєстрований:   2014-05-08 08:38
 Розмір:   10.36 GB 
 Оцінка фільму:   8.8/10 (Голосів: 12)
   
jaguar_arx 
Свій


З нами з: 27.08.12
Востаннє: 05.12.16
Повідомлень: 77

2014-05-08 08:57  
Країна: Південна Корея, США, Франція, Чехія

Цей фільм до речі в голосуванні на гуртом на наступний пакет перекладів. І до речі наразі в четвірці лідерів, тобто його будуть перекладати. Шкода, що він там лідирує, при тому що ось вже є готовий дубляж, а наприклад фільми Redirected, Out of the Furnace і Only Lovers Left Alive можуть ще надовго залишитись без перекладу.

igor911 
Відео Гуртом
Відео Гуртом


З нами з: 18.01.08
Востаннє: 06.12.16
Повідомлень: 5143

2014-05-08 09:32  
jaguar_arx написано:
при тому що ось вже є готовий дубляж

Тут любительська двоголоска + одноголоска. Хоча так, питання доцільності ще однієї озвучки постає.

ivan vyrvyvuho 
VIP


З нами з: 19.08.12
Востаннє: 05.12.16
Повідомлень: 836

2014-05-08 09:45  
igor911, все чудово, тільки додайте лейбу "Авторський реліз".
igor911 
Відео Гуртом
Відео Гуртом


З нами з: 18.01.08
Востаннє: 06.12.16
Повідомлень: 5143

2014-05-08 09:49  
Вибач, забув.
bohun 
VIP


З нами з: 21.03.09
Востаннє: 05.12.16
Повідомлень: 271

2014-05-08 19:51  
Постапокаліптична антиутопія з Капітаном Америкою? Побіг качати.
Yellow_man 
Новенький


З нами з: 29.06.12
Востаннє: 02.12.16
Повідомлень: 13

2014-05-09 17:36  
Це у всіх проблеми з відео після 01:38:47 ???
BOOGud 
VIP


З нами з: 06.03.12
Востаннє: 11.11.16
Повідомлень: 907

2014-05-09 22:04  
Yellow_man написано:
Це у всіх проблеми з відео після 01:38:47 ???

ну в мене все в нормі, отже файл не битий абощо,
спробуйте інший плеєр

Yellow_man 
Новенький


З нами з: 29.06.12
Востаннє: 02.12.16
Повідомлень: 13

2014-05-10 05:15  
Все ок, повторне скачування вирішило проблему Wide grin
Ваш часовий пояс: GMT + 2 Години

Нова тема   Відповісти