Завантажити та скачати торренти українською


Едуард Драч - Дискографія (3 CD) (2002-2011) [FLAC] | Folk

Нові коментарі

Нова тема   Відповісти
Автор Повідомлення
gosha.samovar 
VIP


З нами з: 08.09.10
Востаннє: 05.12.16
Повідомлень: 400

2014-05-02 12:26  
Едуард Драч - Дискографія (3 CD) (2002-2011) [FLAC] | Folk



Стиль: Folk
Країна, місто: Україна, Київ
Видавець: САМЕ ТАК!, НАШ ФОРМАТ
Пісні:
    Небо України (2002)



    01. Небо України
    02. Київська Русь
    03. Зірка Мономаха
    04. Величальна Данилу Галицькому
    05. Вовкулака
    06. Б'ють пороги
    07. Здрастуй, дім!
    08. Грай, кобзарю!
    09. Лист султану
    10. Балада про козака Грицька
    11. Із полону
    12. Чертомлик
    13. Романс "Вересень"
    14. Батьківська колискова
    15. Дюнкерк
    16. Арія Проні...
    17. "Коні не винні"
    18. Тост за Пісню

    Bonus: треки у форматі MIDI, фотографії, тексти та ноти

    Видавець: САМЕ ТАК!
    EAC log
    Exact Audio Copy V1.0 beta 3 from 29. August 2011

    Отчёт EAC об извлечении, выполненном 12. октября 2014, 12:26

    Едуард Драч / Небо України

    Дисковод: PHILIPS SPD2519T Adapter: 2 ID: 0

    Режим чтения : Достоверность
    Использование точного потока : Да
    Отключение кэша аудио : Да
    Использование указателей C2 : Нет

    Коррекция смещения при чтении : 6
    Способность читать области Lead-in и Lead-out : Нет
    Заполнение пропущенных сэмплов тишиной : Да
    Удаление блоков с тишиной в начале и конце : Нет
    При вычислениях CRC использовались нулевые сэмплы : Да
    Интерфейс : Встроенный Win32-интерфейс для Win NT/2000

    Выходной формат : Пользовательский кодировщик
    Выбранный битрейт : 1024 kBit/s
    Качество : Высокий
    Добавление ID3-тега : Нет
    Утилита сжатия : D:\soft_2\EAC\Exact Audio Copy\Flac\flac.exe
    Дополнительные параметры : -V -8 -T "Date=%year%" -T "Genre=%genre%" %source%

    TOC извлечённого CD

    Трек | Старт | Длительность | Начальный сектор | Конечный сектор
    ---------------------------------------------------------------------
    1 | 0:00.00 | 2:27.61 | 0 | 11085
    2 | 2:27.61 | 2:57.06 | 11086 | 24366
    3 | 5:24.67 | 4:06.24 | 24367 | 42840
    4 | 9:31.16 | 4:49.38 | 42841 | 64553
    5 | 14:20.54 | 2:47.06 | 64554 | 77084
    6 | 17:07.60 | 2:38.21 | 77085 | 88955
    7 | 19:46.06 | 2:36.09 | 88956 | 100664
    8 | 22:22.15 | 2:16.74 | 100665 | 110938
    9 | 24:39.14 | 3:07.04 | 110939 | 124967
    10 | 27:46.18 | 3:28.49 | 124968 | 140616
    11 | 31:14.67 | 3:47.53 | 140617 | 157694
    12 | 35:02.45 | 2:40.65 | 157695 | 169759
    13 | 37:43.35 | 4:05.01 | 169760 | 188135
    14 | 41:48.36 | 2:36.14 | 188136 | 199849
    15 | 44:24.50 | 2:47.52 | 199850 | 212426
    16 | 47:12.27 | 2:38.43 | 212427 | 224319
    17 | 49:50.70 | 2:16.66 | 224320 | 234585
    18 | 52:07.61 | 1:40.55 | 234586 | 242140
    19 | 56:20.41 | 1:05.60 | 253541 | 258475

    Характеристики диапазона извлечения и сообщения об ошибках

    Выбранный диапазон

    Имя файла N:\Роздачі\Едуард Драч\Небо України (2002) [FLAC]\Едуард Драч - Небо України.wav

    Пиковый уровень 98.8 %
    Скорость извлечения 7.8 X
    Качество диапазона 100.0 %
    CRC теста 5047AA8D
    CRC копии 5047AA8D
    Копирование... OK

    Ошибок не произошло

    AccurateRip: сводка

    Трек 1 отсутствует в базе данных
    Трек 2 отсутствует в базе данных
    Трек 3 отсутствует в базе данных
    Трек 4 отсутствует в базе данных
    Трек 5 отсутствует в базе данных
    Трек 6 отсутствует в базе данных
    Трек 7 отсутствует в базе данных
    Трек 8 отсутствует в базе данных
    Трек 9 отсутствует в базе данных
    Трек 10 отсутствует в базе данных
    Трек 11 отсутствует в базе данных
    Трек 12 отсутствует в базе данных
    Трек 13 отсутствует в базе данных
    Трек 14 отсутствует в базе данных
    Трек 15 отсутствует в базе данных
    Трек 16 отсутствует в базе данных
    Трек 17 отсутствует в базе данных
    Трек 18 отсутствует в базе данных

    Ни одного трека нет в базе AccurateRip

    Конец отчёта

    ==== Контрольная сумма отчёта AA8FBF90D2BF757CEE55BFFE259C0AE20FFA339B21302B8E49E3AB63189825FB ====
    Спектр
    Тривалість: 00:53:49
    Бітрейт: 989 кб/с
    Мова: українська
    Двом душам дарується (2005)



    01. Кам'яний ведмідь
    02. Марина
    03. Про зустріч
    04. Вересень
    05. Баркарола
    06. Кохана дружина
    07. Аріозо
    08. Народження доньки
    09. Казка, котра називається Крим
    10. Про два центи
    11. Романс про кохання
    12. Циганочка "Не гадай, чорноброва"
    13. Блюз
    14. Не вірте, панно, тим розмовам...
    15. Дощ в дорогу
    16. Батьківська колискова
    Видавець: САМЕ ТАК!
    EAC log
    Exact Audio Copy V1.0 beta 3 from 29. August 2011

    Отчёт EAC об извлечении, выполненном 23. ноября 2014, 20:11

    Едуард Драч / Двом душам дарується

    Дисковод: PHILIPS SPD2519T Adapter: 2 ID: 0

    Режим чтения : Достоверность
    Использование точного потока : Да
    Отключение кэша аудио : Да
    Использование указателей C2 : Нет

    Коррекция смещения при чтении : 6
    Способность читать области Lead-in и Lead-out : Нет
    Заполнение пропущенных сэмплов тишиной : Да
    Удаление блоков с тишиной в начале и конце : Нет
    При вычислениях CRC использовались нулевые сэмплы : Да
    Интерфейс : Встроенный Win32-интерфейс для Win NT/2000

    Выходной формат : Пользовательский кодировщик
    Выбранный битрейт : 1024 kBit/s
    Качество : Высокий
    Добавление ID3-тега : Нет
    Утилита сжатия : D:\soft_2\EAC\Exact Audio Copy\Flac\flac.exe
    Дополнительные параметры : -V -8 -T "Date=%year%" -T "Genre=%genre%" %source%

    TOC извлечённого CD

    Трек | Старт | Длительность | Начальный сектор | Конечный сектор
    ---------------------------------------------------------------------
    1 | 0:00.00 | 3:06.37 | 0 | 13986
    2 | 3:06.37 | 5:28.46 | 13987 | 38632
    3 | 8:35.08 | 3:13.60 | 38633 | 53167
    4 | 11:48.68 | 3:48.44 | 53168 | 70311
    5 | 15:37.37 | 3:22.31 | 70312 | 85492
    6 | 18:59.68 | 2:57.17 | 85493 | 98784
    7 | 21:57.10 | 3:16.57 | 98785 | 113541
    8 | 25:13.67 | 3:39.72 | 113542 | 130038
    9 | 28:53.64 | 2:30.60 | 130039 | 141348
    10 | 31:24.49 | 2:00.44 | 141349 | 150392
    11 | 33:25.18 | 3:30.63 | 150393 | 166205
    12 | 36:56.06 | 3:00.12 | 166206 | 179717
    13 | 39:56.18 | 4:06.03 | 179718 | 198170
    14 | 44:02.21 | 3:25.01 | 198171 | 213546
    15 | 47:27.22 | 3:56.06 | 213547 | 231252
    16 | 51:23.28 | 3:17.06 | 231253 | 246033

    Характеристики диапазона извлечения и сообщения об ошибках

    Выбранный диапазон

    Имя файла N:\Роздачі\Едуард Драч\Двом душам дарується (2005) [FLAC]\Едуард Драч - Двом душам дарується.wav

    Пиковый уровень 79.0 %
    Скорость извлечения 4.7 X
    Качество диапазона 100.0 %
    CRC теста F5AC1B24
    CRC копии F5AC1B24
    Копирование... OK

    Ошибок не произошло

    AccurateRip: сводка

    Трек 1 отсутствует в базе данных
    Трек 2 отсутствует в базе данных
    Трек 3 отсутствует в базе данных
    Трек 4 отсутствует в базе данных
    Трек 5 отсутствует в базе данных
    Трек 6 отсутствует в базе данных
    Трек 7 отсутствует в базе данных
    Трек 8 отсутствует в базе данных
    Трек 9 отсутствует в базе данных
    Трек 10 отсутствует в базе данных
    Трек 11 отсутствует в базе данных
    Трек 12 отсутствует в базе данных
    Трек 13 отсутствует в базе данных
    Трек 14 отсутствует в базе данных
    Трек 15 отсутствует в базе данных
    Трек 16 отсутствует в базе данных

    Ни одного трека нет в базе AccurateRip

    Конец отчёта

    ==== Контрольная сумма отчёта 2DAB0B7B494E0AFDBDA66116FAF3CEA8EAE1E7C95944822A2EC7BD6179653257 ====
    Спектр
    Тривалість: 00:54:40
    Бітрейт: 666 кб/с
    Мова: українська
    Про славу і багатство (2011)



    01. Епос (вірш)
    02. Псалом 111 (112)
    03. Про славу і багатство
    04. Коли з правди насміхаються
    05. Рай-Рождество
    06. Із полону, з-під Ізмаїлу
    07. Дюнкерк
    08. Про руйнування Січи (традиційна)
    09. Про нещасну матір
    10. Іване-гетьмане
    11. Гопак (народний танець)
    12. Суха Балка
    13. Рано-пораненьку
    14. Чужина
    15. Не зостанусь
    16. Про страшний час (традиційна)
    17. Ой, лежить кобзар
    18. Гора Трикута (карпатсько-гімалайська рага)
    19. Печене порося (народний танець)
    20. Про куму
    21. Казав мені панотець
    22. Козак і шинкарочка
    23. Ритм-енд-блюз (сучасний шинкарсько-пабський танок)
    24. Тост за пісню
    Видавець: НАШ ФОРМАТ
    Виконавці:
      Едуард Драч - спів, всі інструменти

      Народні пісні і танці - 8, 11, 16, 19
      Авторські пісні Едуарда Драча - 1-7, 9, 10, 12-15, 17, 18, 20-24


    Інструменти:
      Кобза вересаївська (М. Будник, 1994) - № 1-24
      Ліра колісна (Kurt Reichmann, 2005) - №№ 19, 23, 24
      Козобас, бугай, бухало - №№ 11, 19, 24
    EAC log
    Exact Audio Copy V1.0 beta 3 from 29. August 2011

    Отчёт EAC об извлечении, выполненном 2. мая 2014, 10:58

    Едуард Драч / Про славу і багатство

    Дисковод: PHILIPS SPD2519T Adapter: 2 ID: 0

    Режим чтения : Достоверность
    Использование точного потока : Да
    Отключение кэша аудио : Да
    Использование указателей C2 : Нет

    Коррекция смещения при чтении : 6
    Способность читать области Lead-in и Lead-out : Нет
    Заполнение пропущенных сэмплов тишиной : Да
    Удаление блоков с тишиной в начале и конце : Нет
    При вычислениях CRC использовались нулевые сэмплы : Да
    Интерфейс : Встроенный Win32-интерфейс для Win NT/2000

    Выходной формат : Пользовательский кодировщик
    Выбранный битрейт : 1024 kBit/s
    Качество : Высокий
    Добавление ID3-тега : Нет
    Утилита сжатия : D:\soft_2\EAC\Exact Audio Copy\Flac\flac.exe
    Дополнительные параметры : -V -8 -T "Date=%year%" -T "Genre=%genre%" %source%

    TOC извлечённого CD

    Трек | Старт | Длительность | Начальный сектор | Конечный сектор
    ---------------------------------------------------------------------
    1 | 0:00.00 | 3:01.74 | 0 | 13648
    2 | 3:01.74 | 2:56.42 | 13649 | 26890
    3 | 5:58.41 | 2:11.01 | 26891 | 36716
    4 | 8:09.42 | 3:08.61 | 36717 | 50877
    5 | 11:18.28 | 1:38.15 | 50878 | 58242
    6 | 12:56.43 | 3:36.00 | 58243 | 74442
    7 | 16:32.43 | 2:45.33 | 74443 | 86850
    8 | 19:18.01 | 5:27.00 | 86851 | 111375
    9 | 24:45.01 | 4:44.00 | 111376 | 132675
    10 | 29:29.01 | 3:55.00 | 132676 | 150300
    11 | 33:24.01 | 1:17.52 | 150301 | 156127
    12 | 34:41.53 | 2:26.49 | 156128 | 167126
    13 | 37:08.27 | 2:33.00 | 167127 | 178601
    14 | 39:41.27 | 3:48.00 | 178602 | 195701
    15 | 43:29.27 | 2:07.00 | 195702 | 205226
    16 | 45:36.27 | 4:40.01 | 205227 | 226227
    17 | 50:16.28 | 4:31.59 | 226228 | 246611
    18 | 54:48.12 | 2:23.29 | 246612 | 257365
    19 | 57:11.41 | 1:24.18 | 257366 | 263683
    20 | 58:35.59 | 1:37.01 | 263684 | 270959
    21 | 60:12.60 | 1:53.16 | 270960 | 279450
    22 | 62:06.01 | 2:40.01 | 279451 | 291451
    23 | 64:46.02 | 1:49.01 | 291452 | 299627
    24 | 66:35.03 | 2:07.56 | 299628 | 309208

    Характеристики диапазона извлечения и сообщения об ошибках

    Выбранный диапазон

    Имя файла N:\Роздачі\Едуард Драч\Едуард Драч - Про славу і багатство (2011) [FLAC]\Едуард Драч - Про славу і багатство.wav

    Копирование прервано

    Конец отчёта

    ==== Контрольная сумма отчёта 68389D934B1BD862F791BD855C97394D971279BE50E25FF56AA99A4D67435AE7 ====

    ------------------------------------------------------------

    Exact Audio Copy V1.0 beta 3 from 29. August 2011

    Отчёт EAC об извлечении, выполненном 2. мая 2014, 12:00

    Едуард Драч / Про славу і багатство

    Дисковод: HL-DT-STDVD-RAM GSA-H58N Adapter: 0 ID: 0

    Режим чтения : Достоверность
    Использование точного потока : Да
    Отключение кэша аудио : Да
    Использование указателей C2 : Нет

    Коррекция смещения при чтении : 102
    Способность читать области Lead-in и Lead-out : Нет
    Заполнение пропущенных сэмплов тишиной : Да
    Удаление блоков с тишиной в начале и конце : Нет
    При вычислениях CRC использовались нулевые сэмплы : Да
    Интерфейс : Встроенный Win32-интерфейс для Win NT/2000

    Выходной формат : Пользовательский кодировщик
    Выбранный битрейт : 1024 kBit/s
    Качество : Высокий
    Добавление ID3-тега : Нет
    Утилита сжатия : D:\soft_2\EAC\Exact Audio Copy\Flac\flac.exe
    Дополнительные параметры : -V -8 -T "Date=%year%" -T "Genre=%genre%" %source%

    TOC извлечённого CD

    Трек | Старт | Длительность | Начальный сектор | Конечный сектор
    ---------------------------------------------------------------------
    1 | 0:00.00 | 3:01.74 | 0 | 13648
    2 | 3:01.74 | 2:56.42 | 13649 | 26890
    3 | 5:58.41 | 2:11.01 | 26891 | 36716
    4 | 8:09.42 | 3:08.61 | 36717 | 50877
    5 | 11:18.28 | 1:38.15 | 50878 | 58242
    6 | 12:56.43 | 3:36.00 | 58243 | 74442
    7 | 16:32.43 | 2:45.33 | 74443 | 86850
    8 | 19:18.01 | 5:27.00 | 86851 | 111375
    9 | 24:45.01 | 4:44.00 | 111376 | 132675
    10 | 29:29.01 | 3:55.00 | 132676 | 150300
    11 | 33:24.01 | 1:17.52 | 150301 | 156127
    12 | 34:41.53 | 2:26.49 | 156128 | 167126
    13 | 37:08.27 | 2:33.00 | 167127 | 178601
    14 | 39:41.27 | 3:48.00 | 178602 | 195701
    15 | 43:29.27 | 2:07.00 | 195702 | 205226
    16 | 45:36.27 | 4:40.01 | 205227 | 226227
    17 | 50:16.28 | 4:31.59 | 226228 | 246611
    18 | 54:48.12 | 2:23.29 | 246612 | 257365
    19 | 57:11.41 | 1:24.18 | 257366 | 263683
    20 | 58:35.59 | 1:37.01 | 263684 | 270959
    21 | 60:12.60 | 1:53.16 | 270960 | 279450
    22 | 62:06.01 | 2:40.01 | 279451 | 291451
    23 | 64:46.02 | 1:49.01 | 291452 | 299627
    24 | 66:35.03 | 2:07.56 | 299628 | 309208

    Характеристики диапазона извлечения и сообщения об ошибках

    Выбранный диапазон

    Имя файла N:\Роздачі\Едуард Драч\Едуард Драч - Про славу і багатство (2011) [FLAC]\Едуард Драч - Про славу і багатство.wav

    Пиковый уровень 100.0 %
    Скорость извлечения 3.1 X
    Качество диапазона 99.9 %
    CRC теста 723B0940
    CRC копии 723B0940
    Копирование... OK

    Ошибок не произошло

    AccurateRip: сводка

    Трек 1 отсутствует в базе данных
    Трек 2 отсутствует в базе данных
    Трек 3 отсутствует в базе данных
    Трек 4 отсутствует в базе данных
    Трек 5 отсутствует в базе данных
    Трек 6 отсутствует в базе данных
    Трек 7 отсутствует в базе данных
    Трек 8 отсутствует в базе данных
    Трек 9 отсутствует в базе данных
    Трек 10 отсутствует в базе данных
    Трек 11 отсутствует в базе данных
    Трек 12 отсутствует в базе данных
    Трек 13 отсутствует в базе данных
    Трек 14 отсутствует в базе данных
    Трек 15 отсутствует в базе данных
    Трек 16 отсутствует в базе данных
    Трек 17 отсутствует в базе данных
    Трек 18 отсутствует в базе данных
    Трек 19 отсутствует в базе данных
    Трек 20 отсутствует в базе данных
    Трек 21 отсутствует в базе данных
    Трек 22 отсутствует в базе данных
    Трек 23 отсутствует в базе данных
    Трек 24 отсутствует в базе данных

    Ни одного трека нет в базе AccurateRip

    Конец отчёта

    ==== Контрольная сумма отчёта 9E1DAB83F767C759157EC48CDA1414943EC102109D8F4E9560A3AFE55E1B80D4 ====
    Спектр
    Тривалість: 01:08:43
    Бітрейт: 677 кб/с
    Мова: українська


Тривалість: 02:57:12
Мова: українська
Аудіо-кодек: FLAC
Бітрейт: 666-832 кб/с
Джерело: Власні диски
Роздача містить скани у якості 600 dpi

Якщо Ви справді бажаєте підтримати українське - після прослуховування, якщо музика вам сподобалась, придбайте ліцензійний диск. Підтримаймо вітчизняних виконавців!


Золотий реліз (завантажене не впливає на рейтинг)
 Трекер:    Зареєстрований   

Завантажити / скачати українську музику



відео для новачків



 Зареєстрований:   2014-12-25 11:54
 Розмір:   1.09 GB 
 Оцінка музики:   9.5/10 (Голосів: 10)
   
gosha.samovar 
VIP


З нами з: 08.09.10
Востаннє: 05.12.16
Повідомлень: 400

2014-12-25 11:57  
Торент-файл змінено. До роздачі додано ще 2 альбома. Тепер це дискографія.
Oleksa9 
Поважний учасник


З нами з: 17.05.12
Востаннє: 05.12.16
Повідомлень: 225

2014-12-27 14:56  
gosha.samovar написано:
Торент-файл змінено. До роздачі додано ще 2 альбомИ. Тепер це дискографія.

gosha.samovar 
VIP


З нами з: 08.09.10
Востаннє: 05.12.16
Повідомлень: 400

2014-12-27 15:37  
Да, бро, я такий)). Але я ні на що не претендую і не тицяю по всім темам людей носом у помилки. Просто хотів, щоб ти став прощє. Бо вже задрав своїми кальками.
Чи може ти хочеш, щоб я перевірив зараз твої теми?) У тебе вони, до речі, вже є?))

Oleksa9 
Поважний учасник


З нами з: 17.05.12
Востаннє: 05.12.16
Повідомлень: 225

2014-12-27 15:45  
gosha.samovar написано:
Да


gosha.samovar написано:
прощє


gosha.samovar написано:
задрав


Для початку українською, яка й дозволена правилами тут Wink (2)

gosha.samovar 
VIP


З нами з: 08.09.10
Востаннє: 05.12.16
Повідомлень: 400

2014-12-27 15:48  
Для початку, ти розводиш багато флуду - я прошу адмінів звернути на це увагу.
ssTAss 
Модератор музики


З нами з: 05.07.08
Востаннє: 05.12.16
Повідомлень: 10939

2014-12-27 16:25  
Oleksa9 написано:
Для початку українською, яка й дозволена правилами тут

і це говорить людина, котра має аж 3 релізи та й ті англомовні
пане Oleksa9, досить флуду, бо заробите бан
особисті стосунки з gosha.samovar з'ясовуйте в ПП

Ваш часовий пояс: GMT + 2 Години

Нова тема   Відповісти