Завантажити та скачати торренти українською


Inward Path - Citadel (2000) [FLAC] | Progressive metal

Нові коментарі

Нова тема   Відповісти
Автор Повідомлення
gosha.samovar 
VIP


З нами з: 08.09.10
Востаннє: 06.12.16
Повідомлень: 400

2014-05-01 19:11  
Inward Path - Citadel (2000) [FLAC] | Progressive metal

Inward Path - Citadel (2000) [FLAC] | Progressive metal


Стиль: Progressive Metal
Країна, місто: Україна, Львів
Сайти: Офіційний сайт
Видавець: АТЯБА / РОСТОК-РЕКОРДС (LMC CD ATYABA 11-2000)
Виконавці:
    Олександр Мельник - вокал
    Віталій Яцук - гітари
    Єгор Головачов - клавішні
    Павло Корcун - бас
    Григорій Велчев - ударні

Пісні:
    01. Visions of twilights
    02. Citadel
    03. Bleeding (Come, talk to me)
    04. The pale horse
    05. Hounds of depths
    06. Edge of the age
    07. Sacred serenity
    08. The clarity, the consciousness, the stream
    09. Desolation (bonus from "Antiar" - 96)
    10. Hunting dreams of madness (bonus from "Labyrinth" - 98)
    11. After beginning (bonus from "Labyrinth" - 98)
EAC log
Exact Audio Copy V1.0 beta 3 from 29. August 2011

Отчёт EAC об извлечении, выполненном 30. апреля 2014, 16:36

Inward Path / Citadel

Дисковод: PHILIPS SPD2519T Adapter: 2 ID: 0

Режим чтения : Достоверность
Использование точного потока : Да
Отключение кэша аудио : Да
Использование указателей C2 : Нет

Коррекция смещения при чтении : 6
Способность читать области Lead-in и Lead-out : Нет
Заполнение пропущенных сэмплов тишиной : Да
Удаление блоков с тишиной в начале и конце : Нет
При вычислениях CRC использовались нулевые сэмплы : Да
Интерфейс : Встроенный Win32-интерфейс для Win NT/2000

Выходной формат : Пользовательский кодировщик
Выбранный битрейт : 1024 kBit/s
Качество : Высокий
Добавление ID3-тега : Нет
Утилита сжатия : D:\soft_2\EAC\Exact Audio Copy\Flac\flac.exe
Дополнительные параметры : -V -8 -T "Date=%year%" -T "Genre=%genre%" %source%

TOC извлечённого CD

Трек | Старт | Длительность | Начальный сектор | Конечный сектор
---------------------------------------------------------------------
1 | 0:00.00 | 5:22.18 | 0 | 24167
2 | 5:22.18 | 4:16.22 | 24168 | 43389
3 | 9:38.40 | 6:16.60 | 43390 | 71649
4 | 15:55.25 | 5:06.22 | 71650 | 94621
5 | 21:01.47 | 7:48.00 | 94622 | 129721
6 | 28:49.47 | 3:32.25 | 129722 | 145646
7 | 32:21.72 | 4:01.08 | 145647 | 163729
8 | 36:23.05 | 16:39.63 | 163730 | 238717
9 | 53:02.68 | 8:01.41 | 238718 | 274833
10 | 61:04.34 | 5:40.03 | 274834 | 300336
11 | 66:44.37 | 4:18.72 | 300337 | 319758

Характеристики диапазона извлечения и сообщения об ошибках

Выбранный диапазон

Имя файла N:\Роздачі\Inward Path\2000 - Citadel\Inward Path - Citadel.wav

Пиковый уровень 100.0 %
Скорость извлечения 8.1 X
Качество диапазона 100.0 %
CRC теста 0EBB6412
CRC копии 0EBB6412
Копирование... OK

Ошибок не произошло

AccurateRip: сводка

Трек 1 отсутствует в базе данных
Трек 2 отсутствует в базе данных
Трек 3 отсутствует в базе данных
Трек 4 отсутствует в базе данных
Трек 5 отсутствует в базе данных
Трек 6 отсутствует в базе данных
Трек 7 отсутствует в базе данных
Трек 8 отсутствует в базе данных
Трек 9 отсутствует в базе данных
Трек 10 отсутствует в базе данных
Трек 11 отсутствует в базе данных

Ни одного трека нет в базе AccurateRip

Конец отчёта

==== Контрольная сумма отчёта 5BA25BFB195A5FF184028322ECF47895301AE68E363CE86DDD1B12735D08C59B ====
Спектр
Тривалість: 01:11:03
Мова: англійська, відсутня (02)
Аудіо-кодек: FLAC
Бітрейт: 1009 кб/с
Джерело: Власний диск
Додаткова інформація
Цей диск має більше відгуків,ніж треба.
Ось відгук з Гібралтарської рок-енциклопедії:(www.gepr.net/ifram.html )

Inward Path is a progressive metal band from the Ukraine. I've only heard Citadel, their sole CD release, though this also has 3 bonus tracks on it from Labyrinth.

You'll probably get some idea of what this band is like by the fact that all but one of their releases includes a cover song from bands they obviously admire. These covers are by O. Osborne, Black Sabbath, and on Citadel, "Sacred Serenity" by Death. As they say, you're known by the company you keep, and these guys are every bit as heavy and metallic as the bands they cover.

Vocalist Alexander Melnik sings in English, though I must say I have a tough time hearing the lyrics. What I can hear displays little Russian accent, though what there is simply makes it sound more cynically resolute. A Russian accent isn't bad for death metal. Too bad you can't hear the lyrics better, because they are really well written (in a depressing sort of way). Fortunately, the band has posted these on their web site, and they're worth reading.

Ah, but this isn't just plain vanilla death metal (if there is such a thing). There is some good composition and musicianship to be heard here among the riffing guitars, eccentric bass lines and high-speed solos. And actual keyboards you can hear, too! The keyboardist seems to like a kind of raspy harpsichord kind of sound, which has its own variety of metallic sizzle that cuts through the guitars and goes well with the music. This album is well done and should appeal to fans of this variety of prog metal. You won't find Citadel in general distribution, but you can order it from the Inward Path web site (see link below). Rumor has it that Inward Path have recently disbanded, but enough attention from the west (and a distribution channel to the west for their music) might convince them to make some more of this music, so order your CD now and let the band know if you like them! -- Fred Trafton


Якщо Ви справді бажаєте підтримати українське - після прослуховування, якщо музика вам сподобалась, придбайте ліцензійний диск. Підтримаймо вітчизняних виконавців!


Срібний реліз (на рейтинг впливає 50% завантаженого)
 Трекер:    Зареєстрований   

Завантажити / скачати українську музику



відео для новачків



 Зареєстрований:   2014-05-01 19:11
 Розмір:   542 MB 
 Оцінка музики:   6.8/10 (Голосів: 5)
   
rockmisto 
Новенький


З нами з: 24.03.12
Востаннє: 25.07.15
Повідомлень: 3

2014-09-28 11:44  
Вітаю, Gosha! Це - Олександр Мельник Happy Запрошую до моїх нових музонів Happy http://www.reverbnation.com/mistygates
gosha.samovar 
VIP


З нами з: 08.09.10
Востаннє: 06.12.16
Повідомлень: 400

2014-09-28 13:18  
Ого, дякую!)
Ваш часовий пояс: GMT + 2 Години

Нова тема   Відповісти