Завантажити та скачати торренти українською


Доброго ранку, В'єтнам / Good Morning, Vietnam (1987) 720p Ukr/Eng | Sub Eng

Нові коментарі

Нова тема   Відповісти
Автор Повідомлення
Sando7 
Відео Гуртом - запис з ТБ
Відео Гуртом - запис з ТБ


З нами з: 04.05.09
Востаннє: 07.12.16
Повідомлень: 840

2014-04-28 20:40  
Доброго ранку, В'єтнам / Good Morning, Vietnam (1987) 720p Ukr/Eng | Sub Eng

Доброго ранку, В'єтнам / Good Morning, Vietnam (1987) 720p Ukr/Eng | Sub Eng


Жанр: Військова драма, комедія
Країна: США



Кінокомпанія: Touchstone Pictures
Режисер: Барі Левінсон
Актори: Робін Вільямс, Форест Утекер, Танг Тан Тран, Чінтара Сукапатана, Бруно Кербі, Роберт Вул, Дж. Т. Уолш, Ноубл Уіллінґем та інші...

Сюжет:
1965 рік. Рядовий ВПС США, ведучий радіо Едріан Кронауер, прибуває до В'єтнаму, щоб зайняти місце на американській військовій радіостанції в Сайгоні.
З його появою програма "Добрий ранок, В'єтнам" перестає існувати для галочки і починає віщати для слухачів. Замість рутинних і нудних повідомлень і заїжджених платівок з динаміків тепер звучить гумор на межі фолу і заводний рок-н-рол. Кронауер висміює всіх і вся, але часом його жарти - лише спосіб показати справжнє обличчя війни. При цьому на дозвіллі найпопулярніший радіоведучий в Сайгоні залицяється до дівчини-в'єтнамки. Чи потрібен такий співробітник на військовому радіо? Солдатам - так, а ось начальству - ні.


Тривалість: 02:01:00
Якість: 720р
Відео:
кодек:
розмір кадру: 1280 x 694
бітрейт: ~7966 кб/с

Аудіо # 1:
мова: українська
переклад: двоголосий закадровий
кодек: 5.1
бітрейт: 640 кб/с

накладено чисті голоси на оригінальну доріжку

фільм перекладено та озвучено студією "Стармайстер"

Аудіо # 2:
мова: англійська
переклад: оригінал
кодек: 5.1
бітрейт: 640 кб/с

Джерело звуку:


Субтитри:
мова: англійська
тип: програмні (м'які)
формат: *.srt
MediaInfo
Complete name : C:\Users\sando7\Desktop\Reliz\Good Morning, Vietnam (1987) [Ukr.Eng] 720p [Hurtom&HDClub].mkv
Format : Matroska
Format version : Version 1
File size : 8.03 GiB
Duration : 2h 1mn
Overall bit rate : 9 455 Kbps
Encoded date : UTC 2014-04-28 15:04:08
Writing application : mkvmerge v2.4.1 ('Use Me') built on Dec 5 2008 18:30:05
Writing library : libebml v0.7.7 + libmatroska v0.8.1

Video
ID : 1
Format : AVC
Format/Info : Advanced Video Codec
Format profile : [email protected]
Format settings, CABAC : Yes
Format settings, ReFrames : 9 frames
Codec ID : V_MPEG4/ISO/AVC
Duration : 2h 1mn
Bit rate : 7 987 Kbps
Width : 1 280 pixels
Height : 694 pixels
Display aspect ratio : 1.85:1
Frame rate mode : Constant
Frame rate : 23.976 fps
Color space : YUV
Chroma subsampling : 4:2:0
Bit depth : 8 bits
Scan type : Progressive
Bits/(Pixel*Frame) : 0.375
Stream size : 6.79 GiB (84%)
Title : Encode EbP
Writing library : core 120 r2146 bcd41db
Encoding settings : cabac=1 / ref=9 / deblock=1:-3:-3 / analyse=0x3:0x113 / me=tesa / subme=11 / psy=1 / psy_rd=1.10:0.00 / mixed_ref=1 / me_range=16 / chroma_me=1 / trellis=2 / 8x8dct=1 / cqm=0 / deadzone=21,11 / fast_pskip=0 / chroma_qp_offset=-2 / threads=6 / sliced_threads=0 / nr=0 / decimate=0 / interlaced=0 / bluray_compat=0 / constrained_intra=0 / bframes=9 / b_pyramid=2 / b_adapt=2 / b_bias=0 / direct=3 / weightb=1 / open_gop=0 / weightp=2 / keyint=250 / keyint_min=23 / scenecut=40 / intra_refresh=0 / rc=crf / mbtree=0 / crf=17.5 / qcomp=0.70 / qpmin=0 / qpmax=69 / qpstep=4 / ip_ratio=1.40 / pb_ratio=1.30 / aq=1:0.65
Language : English
Default : Yes
Forced : No

Audio #1
ID : 2
Format : AC-3
Format/Info : Audio Coding 3
Mode extension : CM (complete main)
Format settings, Endianness : Big
Codec ID : A_AC3
Duration : 2h 1mn
Bit rate mode : Constant
Bit rate : 640 Kbps
Channel(s) : 6 channels
Channel positions : Front: L C R, Side: L R, LFE
Sampling rate : 48.0 KHz
Bit depth : 16 bits
Compression mode : Lossy
Stream size : 557 MiB (7%)
Title : Tonis
Language : Ukrainian
Default : Yes
Forced : No

Audio #2
ID : 3
Format : AC-3
Format/Info : Audio Coding 3
Mode extension : CM (complete main)
Format settings, Endianness : Big
Codec ID : A_AC3
Duration : 2h 1mn
Bit rate mode : Constant
Bit rate : 640 Kbps
Channel(s) : 6 channels
Channel positions : Front: L C R, Side: L R, LFE
Sampling rate : 48.0 KHz
Bit depth : 16 bits
Compression mode : Lossy
Stream size : 557 MiB (7%)
Language : English
Default : No
Forced : No

Text
ID : 4
Format : UTF-8
Codec ID : S_TEXT/UTF8
Codec ID/Info : UTF-8 Plain Text
Title : English SDH
Language : English
Default : Yes
Forced : No

Menu
00:00:00.000 : :Opening Titles/Welcome to Saigon
00:08:56.411 : :Unauthorized programming
00:23:21.817 : :English class
00:32:51.720 : :Brawl at Jimmy Wha's
00:40:03.401 : :A date with Trinh
00:52:21.430 : :Unofficial news
01:07:00.308 : :Polkas or no polkas
01:18:20.029 : :Reluctantly reinstated
01:30:37.932 : :Friends and enemies
01:48:43.016 : :Goodbye, Vietnam/End Credits


Джерело: & ріп
Особиста оцінка: 7 - моїй подрузі не сподобалося


Срібний реліз (на рейтинг впливає 50% завантаженого)
 Трекер:    Зареєстрований   

Завантажити / скачати фільм українською



відео для новачків



 Зареєстрований:   2014-04-28 20:40
 Розмір:   8.03 GB 
 Оцінка фільму:   9.2/10 (Голосів: 9)
   
Інші релізи
   Доброго ранку, В'єтнам / Good Morning, Vietnam (1987) Sando7  3 / 0   2.18 GB   2014-04-28 19:42 
waldi-hurtom 
VIP


З нами з: 07.10.12
Востаннє: 07.12.16
Повідомлень: 611

2014-05-15 08:56  
Розкішний фільм! Дякую за чудовий реліз. Цілком раніше не бачив. 10 з 10.
alex_cross 
Новенький


З нами з: 16.07.10
Востаннє: 26.11.16
Повідомлень: 13

2014-11-16 21:31  
Дивився англійською з субтитрами, бо гумор у значній мірі - гра слів. Неперевершена акторська гра. Добре кіно.
Ваш часовий пояс: GMT + 2 Години

Нова тема   Відповісти