Завантажити та скачати торренти українською


Гурт Йо'Гурт / Ghurt Yo'Ghurt - Real Live Album (2004) [FLAC] | Folk

Нові коментарі

Нова тема   Відповісти
Автор Повідомлення
gosha.samovar 
VIP


З нами з: 08.09.10
Востаннє: 04.12.16
Повідомлень: 400

2014-04-28 11:47  
Гурт Йо'Гурт / Ghurt Yo'Ghurt - Real Live Album (2004) [FLAC] | Folk



Стиль: Folk
Країна, місто: Україна, Київ
Сайти: Офіційний сайт
Видавець: Атлантик (565 ATL CD-A)
Виконавці:
    Марія Хмельова – флейта, вокал
    Євдоким Решетько – акустична гітара, вокал
    Кирило Бородін – скрипка
    Данило Денисов – акордеон
    Тимофій Решетько – перкусія
    Олександр Муренко – ударні
    Jack Frost – перкусія, електрична гітара
    Олег ДеПутятін – бас-гітара

Пісні:
    01. Trip to Sligo set
    02. Holdush
    03. Reel D-dur
    04. Butterfly
    05. Ouster wife rent
    06. Irish Pol'ka
    07. Let it be Good
    08. Things to Do
    09. Lucky Rainbow
    10. By this River
    11. Another Day before
    12. Chichipaka's reel
mp3 bonus
EAC log
Exact Audio Copy V1.0 beta 3 from 29. August 2011

Отчёт EAC об извлечении, выполненном 27. апреля 2014, 18:19

Ghurt Yo' Ghurt / Real Live Album

Дисковод: PHILIPS SPD2519T Adapter: 2 ID: 0

Режим чтения : Достоверность
Использование точного потока : Да
Отключение кэша аудио : Да
Использование указателей C2 : Нет

Коррекция смещения при чтении : 6
Способность читать области Lead-in и Lead-out : Нет
Заполнение пропущенных сэмплов тишиной : Да
Удаление блоков с тишиной в начале и конце : Нет
При вычислениях CRC использовались нулевые сэмплы : Да
Интерфейс : Встроенный Win32-интерфейс для Win NT/2000

Выходной формат : Пользовательский кодировщик
Выбранный битрейт : 1024 kBit/s
Качество : Высокий
Добавление ID3-тега : Нет
Утилита сжатия : D:\soft_2\EAC\Exact Audio Copy\Flac\flac.exe
Дополнительные параметры : -V -8 -T "Date=%year%" -T "Genre=%genre%" %source%

TOC извлечённого CD

Трек | Старт | Длительность | Начальный сектор | Конечный сектор
---------------------------------------------------------------------
1 | 0:00.00 | 4:42.00 | 0 | 21149
2 | 4:42.00 | 3:04.59 | 21150 | 35008
3 | 7:46.59 | 2:36.40 | 35009 | 46748
4 | 10:23.24 | 4:22.49 | 46749 | 66447
5 | 14:45.73 | 4:11.32 | 66448 | 85304
6 | 18:57.30 | 3:35.47 | 85305 | 101476
7 | 22:33.02 | 3:22.09 | 101477 | 116635
8 | 25:55.11 | 3:09.18 | 116636 | 130828
9 | 29:04.29 | 2:45.09 | 130829 | 143212
10 | 31:49.38 | 4:03.19 | 143213 | 161456
11 | 35:52.57 | 3:33.41 | 161457 | 177472
12 | 39:26.23 | 2:28.00 | 177473 | 188572
13 | 44:26.23 | 33:04.37 | 199973 | 348809

Характеристики диапазона извлечения и сообщения об ошибках

Выбранный диапазон

Имя файла N:\Роздачі\Ghurt Yo' Ghurt - Real Live Album (2004)\Ghurt Yo' Ghurt - Real Live Album.wav

Копирование прервано

Конец отчёта

==== Контрольная сумма отчёта 65A5EE888600CFA716F519483A6F728968CE99B538605BA03785CF9BB44590AD ====

------------------------------------------------------------

Exact Audio Copy V1.0 beta 3 from 29. August 2011

Отчёт EAC об извлечении, выполненном 27. апреля 2014, 22:40

Ghurt Yo' Ghurt / Real Live Album

Дисковод: HL-DT-STDVD-RAM GSA-H58N Adapter: 0 ID: 0

Режим чтения : Достоверность
Использование точного потока : Да
Отключение кэша аудио : Да
Использование указателей C2 : Нет

Коррекция смещения при чтении : 102
Способность читать области Lead-in и Lead-out : Нет
Заполнение пропущенных сэмплов тишиной : Да
Удаление блоков с тишиной в начале и конце : Нет
При вычислениях CRC использовались нулевые сэмплы : Да
Интерфейс : Встроенный Win32-интерфейс для Win NT/2000

Выходной формат : Пользовательский кодировщик
Выбранный битрейт : 1024 kBit/s
Качество : Высокий
Добавление ID3-тега : Нет
Утилита сжатия : D:\soft_2\EAC\Exact Audio Copy\Flac\flac.exe
Дополнительные параметры : -V -8 -T "Date=%year%" -T "Genre=%genre%" %source%

TOC извлечённого CD

Трек | Старт | Длительность | Начальный сектор | Конечный сектор
---------------------------------------------------------------------
1 | 0:00.00 | 4:42.00 | 0 | 21149
2 | 4:42.00 | 3:04.59 | 21150 | 35008
3 | 7:46.59 | 2:36.40 | 35009 | 46748
4 | 10:23.24 | 4:22.49 | 46749 | 66447
5 | 14:45.73 | 4:11.32 | 66448 | 85304
6 | 18:57.30 | 3:35.47 | 85305 | 101476
7 | 22:33.02 | 3:22.09 | 101477 | 116635
8 | 25:55.11 | 3:09.18 | 116636 | 130828
9 | 29:04.29 | 2:45.09 | 130829 | 143212
10 | 31:49.38 | 4:03.19 | 143213 | 161456
11 | 35:52.57 | 3:33.41 | 161457 | 177472
12 | 39:26.23 | 2:28.00 | 177473 | 188572
13 | 44:26.23 | 33:04.37 | 199973 | 348809

Характеристики диапазона извлечения и сообщения об ошибках

Выбранный диапазон

Имя файла N:\Роздачі\Ghurt Yo' Ghurt - Real Live Album (2004)\Ghurt Yo' Ghurt - Real Live Album.wav

Пиковый уровень 100.0 %
Скорость извлечения 2.5 X
Качество диапазона 99.9 %
CRC теста 892FCB08
CRC копии 892FCB08
Копирование... OK

Ошибок не произошло

AccurateRip: сводка

Трек 1 отсутствует в базе данных
Трек 2 отсутствует в базе данных
Трек 3 отсутствует в базе данных
Трек 4 отсутствует в базе данных
Трек 5 отсутствует в базе данных
Трек 6 отсутствует в базе данных
Трек 7 отсутствует в базе данных
Трек 8 отсутствует в базе данных
Трек 9 отсутствует в базе данных
Трек 10 отсутствует в базе данных
Трек 11 отсутствует в базе данных
Трек 12 отсутствует в базе данных

Ни одного трека нет в базе AccurateRip

Конец отчёта

==== Контрольная сумма отчёта 563B9BD1933AAFC982472997C63AA9B1E2629E75EADFB7E6FB04304ECD29C71A ====
Спектр
Тривалість: 00:41:54 (+mp3 bonus 03:56:10)
Мова: Відсутня (01 - 07, 12), англійська (08 - 11)
Аудіо-кодек: FLAC
Бітрейт: 913 кб/с (mp3 bonus 160 кб/с)
Джерело: Власний диск
Додаткова інформація
umka.com про альбом:

У нас на сайті цей гурт вперше, але прихильникам живої музики він вже давно відомий, причому далеко не тільки в Києві. Особисто я їхніх виступів на-живо ще й досі, каюся, не чув – і цей альбом дає зрозуміти, що такий стан речей є незадовільним. Звісно, тут багато чого залежить від ваших уподобань. Але кожен, хто не є байдужим до західної музичної традиції у її про-кельтських варіаціях. Послухавши цей. Альбом. Гадаю. Не буде. Розчарований. Тим більше, що диск містить у собі ще й досить велику і розгалужену mp3 колекцію треків – ранні пісні, улюблені пісні з попередніх альбомів, демо записи нових проектів. Тут треба сказати, що цей гурт вже встиг перетворитися на музичне об’єднання YO`Ghurt Music Family. До нього входять сольні проекти учасників гурту, і весь цей матеріал виконується ними не поодинці, а всім гуртом разом. Таким чином, вони у рамках одного проекту виконують дуже різну музику – доволі незвичайне явище. І головне – цікаве. Як вважають самі музиканти, музики повинно бути якомога більше – і я не можу з ними не погодитися. Особливо, якщо це стосується музики гарної. А наостанку додам, що один знайомий валлієць, тобто уродженець Уельсу, випадково почувши у Києві їхній виступ, був відверто вражений тим, наскільки добре „ЙО’Гурт” грає музику його батьківщини – спочатку навіть прийняв їх за співвітчизників. Такі справи.

Антон Йожик Лейба
Якщо Ви справді бажаєте підтримати українське - після прослуховування, якщо музика вам сподобалась, придбайте ліцензійний диск. Підтримаймо вітчизняних виконавців!


Срібний реліз (на рейтинг впливає 50% завантаженого)
 Трекер:    Зареєстрований   

Завантажити / скачати українську музику



відео для новачків



 Зареєстрований:   2014-04-28 12:00
 Розмір:   567 MB 
 Оцінка музики:   6.2/10 (Голосів: 5)
   
Ваш часовий пояс: GMT + 2 Години

Нова тема   Відповісти