Завантажити та скачати торренти українською


Містична Україна (20 випусків) (2012-2013) Rus/Ukr

Нові коментарі

Нова тема   Відповісти
Автор Повідомлення
Archimedes 
Поважний учасник


З нами з: 15.10.13
Востаннє: 25.07.16
Повідомлень: 156

2014-04-28 01:57  
Містична Україна (20 випусків) (2012-2013) Rus/Ukr

Містична Україна (20 випусків) (2012-2013) Rus/Ukr


Жанр: Науково-розважальна програма
Країна: Україна

Телеканал / кіностудія: «Мега»
Ведучий: Марк Дробот
Актори: різні люди (очевидці, експерти та гості програми)...

Сюжет:
Чи правда те, що на території України живуть жахливі чудовиська? Як розпізнати геопатогенну зону та уникнути її впливу? Що таке згубні місця, і де саме у нашій країні найчастіше трапляються жахливі аварії? Та чи існують насправді перевертні і вампіри? Вирушайте на пошуки відповідей у захопливу експедицію найзагадковішими місцями України у проекті телеканалу «Мега» «Містична Україна».
З давніх-давен людство цікавилось містичними явищами та загадковими подіями. Часто такі історії ставали основами міфів та легенд. Проте, чи варто називати давні перекази звичайними вигадками? Та як пояснити таємничі явища, які трапляються з реальними людьми у сучасному світі?
«Містична Україна» покаже свідчення очевидців, візьме коментарі у визнаних науковців та спеціалістів з різних сфер, спробує детально відтворити кожну подію, аби спростувати або підтвердити існування тих чи інших містичних фактів.
Перелік випусків
1. За межами розуму
2. Згубні місця
3. Зомбі. Атака мерців
4. Карта чорної магії
5. Київ. Територія нерозгаданого
6. Місця сили
7. Мольфари. Карпатські чаклуни
8. Оракули. Смертельний дар
9. Перевертні. Життя в чужому тілі
10. Підземні міста. Невидиме життя
11. Позаземні цивілізації
12. Привиди. Царство мертвих
13. Прокляті скарби
14. Родові прокляття
15. Таємниці фортець і замків
16. Таємниця смерті. Друге життя
17. Українська снігова людина
18. Характерники
19. Часові тунелі. Подорожі у часі
20. Чудовиська. Передвісники біди
Тривалість: 20 x ~ 00:45:00
Якість:
Відео:
кодек: AVC (MPEG-4)
розмір кадру: 480 x 360
бітрейт: 454 кб/с

Аудіо:
мова: російська (діалоги українською)
переклад: оригінал
кодек: 2.0
бітрейт: 96,0 кб/с
MediaInfo
Полное имя : \Містична Україна (2012 - 2013) [Hurtom]\Містична Україна. За межами розуму.mp4
Формат : MPEG-4
Профиль формата : Base Media / Version 2
Идентификатор кодека : mp42
Размер файла : 143 Мбайт
Продолжительность : 46 м.
Режим общего битрейта : Переменный
Общий поток : 424 Кбит/сек
Дата кодирования : UTC 2014-02-07 15:43:50
Дата пометки : UTC 2014-02-07 15:43:50
gsst : 0
gstd : 2818368
gssd : B4A7DAD41HH1395260303411742
gshh : r4---sn-4g57kn6k.googlevideo.com

Видео
Идентификатор : 1
Формат : AVC
Формат/Информация : Advanced Video Codec
Профиль формата : [email protected]
Параметр CABAC формата : Нет
Параметр ReFrames формата : 1 кадр
Идентификатор кодека : avc1
Идентификатор кодека/Информация : Advanced Video Coding
Продолжительность : 46 м.
Битрейт : 326 Кбит/сек
Максимальный битрейт : 1560 Кбит/сек
Ширина : 480 пикселей
Высота : 360 пикселей
Соотношение сторон : 4:3
Режим частоты кадров : Постоянный
Частота кадров : 25,000 кадров/сек
Цветовое пространство : YUV
Субдискретизация насыщенности : 4:2:0
Битовая глубина : 8 бит
Тип развёртки : Прогрессивная
Бит/(Пиксели*Кадры) : 0.075
Размер потока : 109 Мбайт (77%)
Дата пометки : UTC 2014-02-07 15:44:22

Аудио
Идентификатор : 2
Формат :
Формат/Информация : Advanced Audio Codec
Профиль формата : LC
Идентификатор кодека : 40
Продолжительность : 46 м.
Вид битрейта : Переменный
Битрейт : 96,0 Кбит/сек
Максимальный битрейт : 103 Кбит/сек
Каналы : 2 канала
Расположение каналов : Front: L R
Частота : 44,1 КГц
Метод сжатия : С потерями
Размер потока : 32,3 Мбайт (23%)
Заголовок : IsoMedia File Produced by Google, 5-11-2011
Дата кодирования : UTC 2014-02-07 15:44:09
Дата пометки : UTC 2014-02-07 15:44:22

Общее
Полное имя : \Містична Україна (2012 - 2013) [Hurtom]\Містична Україна. Згубні місця. Території смерті.mp4
Формат : MPEG-4
Профиль формата : Base Media / Version 2
Идентификатор кодека : mp42
Размер файла : 149 Мбайт
Продолжительность : 44 м.
Режим общего битрейта : Переменный
Общий поток : 467 Кбит/сек
Дата кодирования : UTC 2014-01-19 06:15:10
Дата пометки : UTC 2014-01-19 06:15:10
gsst : 0
gstd : 2668343
gssd : B4A7D6304HH1395259990915878
gshh : r16---sn-4g57knls.googlevideo.com

Видео
Идентификатор : 1
Формат : AVC
Формат/Информация : Advanced Video Codec
Профиль формата : [email protected]
Параметр CABAC формата : Нет
Параметр ReFrames формата : 1 кадр
Идентификатор кодека : avc1
Идентификатор кодека/Информация : Advanced Video Coding
Продолжительность : 44 м.
Битрейт : 369 Кбит/сек
Максимальный битрейт : 2100 Кбит/сек
Ширина : 480 пикселей
Высота : 360 пикселей
Соотношение сторон : 4:3
Режим частоты кадров : Постоянный
Частота кадров : 25,000 кадров/сек
Цветовое пространство : YUV
Субдискретизация насыщенности : 4:2:0
Битовая глубина : 8 бит
Тип развёртки : Прогрессивная
Бит/(Пиксели*Кадры) : 0.085
Размер потока : 117 Мбайт (79%)
Дата пометки : UTC 2014-01-19 06:15:46

Аудио
Идентификатор : 2
Формат :
Формат/Информация : Advanced Audio Codec
Профиль формата : LC
Идентификатор кодека : 40
Продолжительность : 44 м.
Вид битрейта : Переменный
Битрейт : 96,0 Кбит/сек
Максимальный битрейт : 102 Кбит/сек
Каналы : 2 канала
Расположение каналов : Front: L R
Частота : 44,1 КГц
Метод сжатия : С потерями
Размер потока : 30,5 Мбайт (21%)
Заголовок : IsoMedia File Produced by Google, 5-11-2011
Дата кодирования : UTC 2014-01-19 06:15:29
Дата пометки : UTC 2014-01-19 06:15:46

Общее
Полное имя : Містична Україна (2012 - 2013) [Hurtom]\Містична Україна. Зомбі. Атака мерців.mp4
Формат : MPEG-4
Профиль формата : Base Media / Version 2
Идентификатор кодека : mp42
Размер файла : 125 Мбайт
Продолжительность : 46 м.
Режим общего битрейта : Переменный
Общий поток : 376 Кбит/сек
Дата кодирования : UTC 2014-01-26 15:45:57
Дата пометки : UTC 2014-01-26 15:45:57
gsst : 0
gstd : 2799651
gssd : B4A7DADE2HH1395260142013393
gshh : r6---sn-4g57kndl.googlevideo.com

Видео
Идентификатор : 1
Формат : AVC
Формат/Информация : Advanced Video Codec
Профиль формата : [email protected]
Параметр CABAC формата : Нет
Параметр ReFrames формата : 1 кадр
Идентификатор кодека : avc1
Идентификатор кодека/Информация : Advanced Video Coding
Продолжительность : 46 м.
Битрейт : 277 Кбит/сек
Максимальный битрейт : 1389 Кбит/сек
Ширина : 480 пикселей
Высота : 360 пикселей
Соотношение сторон : 4:3
Режим частоты кадров : Постоянный
Частота кадров : 25,000 кадров/сек
Цветовое пространство : YUV
Субдискретизация насыщенности : 4:2:0
Битовая глубина : 8 бит
Тип развёртки : Прогрессивная
Бит/(Пиксели*Кадры) : 0.064
Размер потока : 92,6 Мбайт (74%)
Дата пометки : UTC 2014-01-26 15:46:52

Аудио
Идентификатор : 2
Формат :
Формат/Информация : Advanced Audio Codec
Профиль формата : LC
Идентификатор кодека : 40
Продолжительность : 46 м.
Вид битрейта : Переменный
Битрейт : 96,0 Кбит/сек
Максимальный битрейт : 102 Кбит/сек
Каналы : 2 канала
Расположение каналов : Front: L R
Частота : 44,1 КГц
Метод сжатия : С потерями
Размер потока : 32,0 Мбайт (26%)
Заголовок : IsoMedia File Produced by Google, 5-11-2011
Дата кодирования : UTC 2014-01-26 15:46:22
Дата пометки : UTC 2014-01-26 15:46:52

Общее
Полное имя : Містична Україна (2012 - 2013) [Hurtom]\Містична Україна. Карта чорної магії.mp4
Формат : MPEG-4
Профиль формата : Base Media / Version 2
Идентификатор кодека : mp42
Размер файла : 133 Мбайт
Продолжительность : 45 м.
Режим общего битрейта : Переменный
Общий поток : 411 Кбит/сек
Дата кодирования : UTC 2014-02-07 12:48:31
Дата пометки : UTC 2014-02-07 12:48:31
gsst : 0
gstd : 2717616
gssd : B4A7DAD65HH1395260221566128
gshh : r17---sn-4g57kn6r.googlevideo.com

Видео
Идентификатор : 1
Формат : AVC
Формат/Информация : Advanced Video Codec
Профиль формата : [email protected]
Параметр CABAC формата : Нет
Параметр ReFrames формата : 1 кадр
Идентификатор кодека : avc1
Идентификатор кодека/Информация : Advanced Video Coding
Продолжительность : 45 м.
Битрейт : 312 Кбит/сек
Максимальный битрейт : 1483 Кбит/сек
Ширина : 480 пикселей
Высота : 360 пикселей
Соотношение сторон : 4:3
Режим частоты кадров : Постоянный
Частота кадров : 25,000 кадров/сек
Цветовое пространство : YUV
Субдискретизация насыщенности : 4:2:0
Битовая глубина : 8 бит
Тип развёртки : Прогрессивная
Бит/(Пиксели*Кадры) : 0.072
Размер потока : 101 Мбайт (76%)
Дата пометки : UTC 2014-02-07 12:49:01

Аудио
Идентификатор : 2
Формат :
Формат/Информация : Advanced Audio Codec
Профиль формата : LC
Идентификатор кодека : 40
Продолжительность : 45 м.
Вид битрейта : Переменный
Битрейт : 96,0 Кбит/сек
Максимальный битрейт : 102 Кбит/сек
Каналы : 2 канала
Расположение каналов : Front: L R
Частота : 44,1 КГц
Метод сжатия : С потерями
Размер потока : 31,1 Мбайт (23%)
Заголовок : IsoMedia File Produced by Google, 5-11-2011
Дата кодирования : UTC 2014-02-07 12:48:45
Дата пометки : UTC 2014-02-07 12:49:01

Общее
Полное имя : Містична Україна (2012 - 2013) [Hurtom]\Містична Україна. Київ. Територія нерозгаданого.mp4
Формат : MPEG-4
Профиль формата : Base Media / Version 2
Идентификатор кодека : mp42
Размер файла : 126 Мбайт
Продолжительность : 44 м.
Режим общего битрейта : Переменный
Общий поток : 398 Кбит/сек
Дата кодирования : UTC 2014-02-18 09:41:31
Дата пометки : UTC 2014-02-18 09:41:31
gsst : 0
gstd : 2653181
gssd : B4A7D6302HH1395260090750908
gshh : r5---sn-4g57knls.googlevideo.com

Видео
Идентификатор : 1
Формат : AVC
Формат/Информация : Advanced Video Codec
Профиль формата : [email protected]
Параметр CABAC формата : Нет
Параметр ReFrames формата : 1 кадр
Идентификатор кодека : avc1
Идентификатор кодека/Информация : Advanced Video Coding
Продолжительность : 44 м.
Битрейт : 299 Кбит/сек
Максимальный битрейт : 1468 Кбит/сек
Ширина : 492 пикселя
Высота : 360 пикселей
Соотношение сторон : 4:3
Соотношение сторон в оригинале : 4:3
Режим частоты кадров : Постоянный
Частота кадров : 25,000 кадров/сек
Цветовое пространство : YUV
Субдискретизация насыщенности : 4:2:0
Битовая глубина : 8 бит
Тип развёртки : Прогрессивная
Бит/(Пиксели*Кадры) : 0.068
Размер потока : 94,6 Мбайт (75%)
Дата пометки : UTC 2014-02-18 09:42:00

Аудио
Идентификатор : 2
Формат :
Формат/Информация : Advanced Audio Codec
Профиль формата : LC
Идентификатор кодека : 40
Продолжительность : 44 м.
Вид битрейта : Переменный
Битрейт : 96,0 Кбит/сек
Максимальный битрейт : 102 Кбит/сек
Каналы : 2 канала
Расположение каналов : Front: L R
Частота : 44,1 КГц
Метод сжатия : С потерями
Размер потока : 30,4 Мбайт (24%)
Заголовок : IsoMedia File Produced by Google, 5-11-2011
Дата кодирования : UTC 2014-02-18 09:41:47
Дата пометки : UTC 2014-02-18 09:42:00

Общее
Полное имя : Містична Україна (2012 - 2013) [Hurtom]\Містична Україна. Місця сили.mp4
Формат : MPEG-4
Профиль формата : Base Media / Version 2
Идентификатор кодека : mp42
Размер файла : 128 Мбайт
Продолжительность : 44 м.
Режим общего битрейта : Переменный
Общий поток : 400 Кбит/сек
Дата кодирования : UTC 2014-02-15 03:01:43
Дата пометки : UTC 2014-02-15 03:01:43
gsst : 0
gstd : 2690773
gssd : B4A7D6305HH1395260051768582
gshh : r19---sn-4g57knls.googlevideo.com

Видео
Идентификатор : 1
Формат : AVC
Формат/Информация : Advanced Video Codec
Профиль формата : [email protected]
Параметр CABAC формата : Нет
Параметр ReFrames формата : 1 кадр
Идентификатор кодека : avc1
Идентификатор кодека/Информация : Advanced Video Coding
Продолжительность : 44 м.
Битрейт : 301 Кбит/сек
Максимальный битрейт : 1282 Кбит/сек
Ширина : 492 пикселя
Высота : 360 пикселей
Соотношение сторон : 4:3
Соотношение сторон в оригинале : 4:3
Режим частоты кадров : Постоянный
Частота кадров : 25,000 кадров/сек
Цветовое пространство : YUV
Субдискретизация насыщенности : 4:2:0
Битовая глубина : 8 бит
Тип развёртки : Прогрессивная
Бит/(Пиксели*Кадры) : 0.068
Размер потока : 96,7 Мбайт (75%)
Дата пометки : UTC 2014-02-15 03:02:12

Аудио
Идентификатор : 2
Формат :
Формат/Информация : Advanced Audio Codec
Профиль формата : LC
Идентификатор кодека : 40
Продолжительность : 44 м.
Вид битрейта : Переменный
Битрейт : 96,0 Кбит/сек
Максимальный битрейт : 102 Кбит/сек
Каналы : 2 канала
Расположение каналов : Front: L R
Частота : 44,1 КГц
Метод сжатия : С потерями
Размер потока : 30,8 Мбайт (24%)
Заголовок : IsoMedia File Produced by Google, 5-11-2011
Дата кодирования : UTC 2014-02-15 03:01:58
Дата пометки : UTC 2014-02-15 03:02:12

Общее
Полное имя : Містична Україна (2012 - 2013) [Hurtom]\Містична Україна. Мольфари. Карпатські чаклуни.mp4
Формат : MPEG-4
Профиль формата : Base Media / Version 2
Идентификатор кодека : mp42
Размер файла : 135 Мбайт
Продолжительность : 46 м.
Режим общего битрейта : Переменный
Общий поток : 411 Кбит/сек
Дата кодирования : UTC 2014-01-13 03:08:19
Дата пометки : UTC 2014-01-13 03:08:19
gsst : 0
gstd : 2760690
gssd : B4A7D6323HH1395260189465542
gshh : r12---sn-4g57knlz.googlevideo.com

Видео
Идентификатор : 1
Формат : AVC
Формат/Информация : Advanced Video Codec
Профиль формата : [email protected]
Параметр CABAC формата : Нет
Параметр ReFrames формата : 1 кадр
Идентификатор кодека : avc1
Идентификатор кодека/Информация : Advanced Video Coding
Продолжительность : 46 м.
Битрейт : 313 Кбит/сек
Максимальный битрейт : 1387 Кбит/сек
Ширина : 480 пикселей
Высота : 360 пикселей
Соотношение сторон : 4:3
Режим частоты кадров : Постоянный
Частота кадров : 25,000 кадров/сек
Цветовое пространство : YUV
Субдискретизация насыщенности : 4:2:0
Битовая глубина : 8 бит
Тип развёртки : Прогрессивная
Бит/(Пиксели*Кадры) : 0.072
Размер потока : 103 Мбайт (76%)
Дата пометки : UTC 2014-01-13 03:08:41

Аудио
Идентификатор : 2
Формат :
Формат/Информация : Advanced Audio Codec
Профиль формата : LC
Идентификатор кодека : 40
Продолжительность : 46 м.
Вид битрейта : Переменный
Битрейт : 96,0 Кбит/сек
Максимальный битрейт : 102 Кбит/сек
Каналы : 2 канала
Расположение каналов : Front: L R
Частота : 44,1 КГц
Метод сжатия : С потерями
Размер потока : 31,6 Мбайт (23%)
Заголовок : IsoMedia File Produced by Google, 5-11-2011
Дата кодирования : UTC 2014-01-13 03:08:31
Дата пометки : UTC 2014-01-13 03:08:41

Общее
Полное имя : Містична Україна (2012 - 2013) [Hurtom]\Містична Україна. Оракули. Смертельний дар.mp4
Формат : MPEG-4
Профиль формата : Base Media / Version 2
Идентификатор кодека : mp42
Размер файла : 124 Мбайт
Продолжительность : 44 м.
Режим общего битрейта : Переменный
Общий поток : 387 Кбит/сек
Дата кодирования : UTC 2014-02-22 11:12:01
Дата пометки : UTC 2014-02-22 11:12:01
gsst : 0
gstd : 2690588
gssd : B4A7DADC5HH1395260069168172
gshh : r18---sn-4g57knde.googlevideo.com

Видео
Идентификатор : 1
Формат : AVC
Формат/Информация : Advanced Video Codec
Профиль формата : [email protected]
Параметр CABAC формата : Нет
Параметр ReFrames формата : 1 кадр
Идентификатор кодека : avc1
Идентификатор кодека/Информация : Advanced Video Coding
Продолжительность : 44 м.
Битрейт : 289 Кбит/сек
Максимальный битрейт : 1488 Кбит/сек
Ширина : 480 пикселей
Высота : 360 пикселей
Соотношение сторон : 4:3
Режим частоты кадров : Постоянный
Частота кадров : 25,000 кадров/сек
Цветовое пространство : YUV
Субдискретизация насыщенности : 4:2:0
Битовая глубина : 8 бит
Тип развёртки : Прогрессивная
Бит/(Пиксели*Кадры) : 0.067
Размер потока : 92,7 Мбайт (75%)
Дата пометки : UTC 2014-02-22 11:12:20

Аудио
Идентификатор : 2
Формат :
Формат/Информация : Advanced Audio Codec
Профиль формата : LC
Идентификатор кодека : 40
Продолжительность : 44 м.
Вид битрейта : Переменный
Битрейт : 96,0 Кбит/сек
Максимальный битрейт : 102 Кбит/сек
Каналы : 2 канала
Расположение каналов : Front: L R
Частота : 44,1 КГц
Метод сжатия : С потерями
Размер потока : 30,8 Мбайт (25%)
Заголовок : IsoMedia File Produced by Google, 5-11-2011
Дата кодирования : UTC 2014-02-22 11:12:11
Дата пометки : UTC 2014-02-22 11:12:20

Общее
Полное имя : Містична Україна (2012 - 2013) [Hurtom]\Містична Україна. Підземні міста. Невидиме життя.mp4
Формат : MPEG-4
Профиль формата : Base Media / Version 2
Идентификатор кодека : mp42
Размер файла : 124 Мбайт
Продолжительность : 44 м.
Режим общего битрейта : Переменный
Общий поток : 390 Кбит/сек
Дата кодирования : UTC 2014-01-19 08:47:41
Дата пометки : UTC 2014-01-19 08:47:41
gsst : 0
gstd : 2664210
gssd : B4A7DADC1HH1395260011924948
gshh : r3---sn-4g57knde.googlevideo.com

Видео
Идентификатор : 1
Формат : AVC
Формат/Информация : Advanced Video Codec
Профиль формата : [email protected]
Параметр CABAC формата : Нет
Параметр ReFrames формата : 1 кадр
Идентификатор кодека : avc1
Идентификатор кодека/Информация : Advanced Video Coding
Продолжительность : 44 м.
Битрейт : 291 Кбит/сек
Максимальный битрейт : 1435 Кбит/сек
Ширина : 480 пикселей
Высота : 360 пикселей
Соотношение сторон : 4:3
Режим частоты кадров : Постоянный
Частота кадров : 25,000 кадров/сек
Цветовое пространство : YUV
Субдискретизация насыщенности : 4:2:0
Битовая глубина : 8 бит
Тип развёртки : Прогрессивная
Бит/(Пиксели*Кадры) : 0.067
Размер потока : 92,4 Мбайт (75%)
Дата пометки : UTC 2014-01-19 08:47:57

Аудио
Идентификатор : 2
Формат :
Формат/Информация : Advanced Audio Codec
Профиль формата : LC
Идентификатор кодека : 40
Продолжительность : 44 м.
Вид битрейта : Переменный
Битрейт : 96,0 Кбит/сек
Максимальный битрейт : 102 Кбит/сек
Каналы : 2 канала
Расположение каналов : Front: L R
Частота : 44,1 КГц
Метод сжатия : С потерями
Размер потока : 30,5 Мбайт (25%)
Заголовок : IsoMedia File Produced by Google, 5-11-2011
Дата кодирования : UTC 2014-01-19 08:47:50
Дата пометки : UTC 2014-01-19 08:47:57

Общее
Полное имя : Містична Україна (2012 - 2013) [Hurtom]\Містична Україна. Перевертні. Життя в чужому тілі.mp4
Формат : MPEG-4
Профиль формата : Base Media / Version 2
Идентификатор кодека : mp42
Размер файла : 119 Мбайт
Продолжительность : 43 м.
Режим общего битрейта : Переменный
Общий поток : 382 Кбит/сек
Дата кодирования : UTC 2014-02-16 04:41:53
Дата пометки : UTC 2014-02-16 04:41:53
gsst : 0
gstd : 2601586
gssd : B4A7D6304HH1395260031611213
gshh : r16---sn-4g57knls.googlevideo.com

Видео
Идентификатор : 1
Формат : AVC
Формат/Информация : Advanced Video Codec
Профиль формата : [email protected]
Параметр CABAC формата : Нет
Параметр ReFrames формата : 1 кадр
Идентификатор кодека : avc1
Идентификатор кодека/Информация : Advanced Video Coding
Продолжительность : 43 м.
Битрейт : 284 Кбит/сек
Максимальный битрейт : 1500 Кбит/сек
Ширина : 492 пикселя
Высота : 360 пикселей
Соотношение сторон : 4:3
Соотношение сторон в оригинале : 4:3
Режим частоты кадров : Постоянный
Частота кадров : 25,000 кадров/сек
Цветовое пространство : YUV
Субдискретизация насыщенности : 4:2:0
Битовая глубина : 8 бит
Тип развёртки : Прогрессивная
Бит/(Пиксели*Кадры) : 0.064
Размер потока : 88,0 Мбайт (74%)
Дата пометки : UTC 2014-02-16 04:42:12

Аудио
Идентификатор : 2
Формат :
Формат/Информация : Advanced Audio Codec
Профиль формата : LC
Идентификатор кодека : 40
Продолжительность : 43 м.
Вид битрейта : Переменный
Битрейт : 96,0 Кбит/сек
Максимальный битрейт : 102 Кбит/сек
Каналы : 2 канала
Расположение каналов : Front: L R
Частота : 44,1 КГц
Метод сжатия : С потерями
Размер потока : 29,8 Мбайт (25%)
Заголовок : IsoMedia File Produced by Google, 5-11-2011
Дата кодирования : UTC 2014-02-16 04:42:03
Дата пометки : UTC 2014-02-16 04:42:12

Общее
Полное имя : Містична Україна (2012 - 2013) [Hurtom]\Містична Україна. Позаземні цивілізації.mp4
Формат : MPEG-4
Профиль формата : Base Media / Version 2
Идентификатор кодека : mp42
Размер файла : 131 Мбайт
Продолжительность : 45 м.
Режим общего битрейта : Переменный
Общий поток : 401 Кбит/сек
Дата кодирования : UTC 2014-01-27 13:40:10
Дата пометки : UTC 2014-01-27 13:40:10
gsst : 0
gstd : 2739303
gssd : B4A7DDAA1HH1395260238087077
gshh : r1---sn-4g57kued.googlevideo.com

Видео
Идентификатор : 1
Формат : AVC
Формат/Информация : Advanced Video Codec
Профиль формата : [email protected]
Параметр CABAC формата : Нет
Параметр ReFrames формата : 1 кадр
Идентификатор кодека : avc1
Идентификатор кодека/Информация : Advanced Video Coding
Продолжительность : 45 м.
Битрейт : 303 Кбит/сек
Максимальный битрейт : 1552 Кбит/сек
Ширина : 480 пикселей
Высота : 360 пикселей
Соотношение сторон : 4:3
Режим частоты кадров : Постоянный
Частота кадров : 25,000 кадров/сек
Цветовое пространство : YUV
Субдискретизация насыщенности : 4:2:0
Битовая глубина : 8 бит
Тип развёртки : Прогрессивная
Бит/(Пиксели*Кадры) : 0.070
Размер потока : 98,8 Мбайт (75%)
Дата пометки : UTC 2014-01-27 13:40:45

Аудио
Идентификатор : 2
Формат :
Формат/Информация : Advanced Audio Codec
Профиль формата : LC
Идентификатор кодека : 40
Продолжительность : 45 м.
Вид битрейта : Переменный
Битрейт : 96,0 Кбит/сек
Максимальный битрейт : 103 Кбит/сек
Каналы : 2 канала
Расположение каналов : Front: L R
Частота : 44,1 КГц
Метод сжатия : С потерями
Размер потока : 31,3 Мбайт (24%)
Заголовок : IsoMedia File Produced by Google, 5-11-2011
Дата кодирования : UTC 2014-01-27 13:40:28
Дата пометки : UTC 2014-01-27 13:40:45

Общее
Полное имя : Містична Україна (2012 - 2013) [Hurtom]\Містична Україна. Привиди. Царство мертвих.mp4
Формат : MPEG-4
Профиль формата : Base Media / Version 2
Идентификатор кодека : mp42
Размер файла : 132 Мбайт
Продолжительность : 46 м.
Режим общего битрейта : Переменный
Общий поток : 394 Кбит/сек
Дата кодирования : UTC 2014-01-19 10:50:37
Дата пометки : UTC 2014-01-19 10:50:37
gsst : 0
gstd : 2810821
gssd : B4A7D6321HH1395260126197760
gshh : r1---sn-4g57knlz.googlevideo.com

Видео
Идентификатор : 1
Формат : AVC
Формат/Информация : Advanced Video Codec
Профиль формата : [email protected]
Параметр CABAC формата : Нет
Параметр ReFrames формата : 1 кадр
Идентификатор кодека : avc1
Идентификатор кодека/Информация : Advanced Video Coding
Продолжительность : 46 м.
Битрейт : 296 Кбит/сек
Максимальный битрейт : 1681 Кбит/сек
Ширина : 480 пикселей
Высота : 360 пикселей
Соотношение сторон : 4:3
Режим частоты кадров : Постоянный
Частота кадров : 25,000 кадров/сек
Цветовое пространство : YUV
Субдискретизация насыщенности : 4:2:0
Битовая глубина : 8 бит
Тип развёртки : Прогрессивная
Бит/(Пиксели*Кадры) : 0.068
Размер потока : 99,1 Мбайт (75%)
Дата пометки : UTC 2014-01-19 10:51:35

Аудио
Идентификатор : 2
Формат :
Формат/Информация : Advanced Audio Codec
Профиль формата : LC
Идентификатор кодека : 40
Продолжительность : 46 м.
Вид битрейта : Переменный
Битрейт : 96,0 Кбит/сек
Максимальный битрейт : 102 Кбит/сек
Каналы : 2 канала
Расположение каналов : Front: L R
Частота : 44,1 КГц
Метод сжатия : С потерями
Размер потока : 32,2 Мбайт (24%)
Заголовок : IsoMedia File Produced by Google, 5-11-2011
Дата кодирования : UTC 2014-01-19 10:51:09
Дата пометки : UTC 2014-01-19 10:51:35

Общее
Полное имя : Містична Україна (2012 - 2013) [Hurtom]\Містична Україна. Прокляті скарби.mp4
Формат : MPEG-4
Профиль формата : Base Media / Version 2
Идентификатор кодека : mp42
Размер файла : 147 Мбайт
Продолжительность : 46 м.
Режим общего битрейта : Переменный
Общий поток : 441 Кбит/сек
Дата кодирования : UTC 2014-02-17 22:42:19
Дата пометки : UTC 2014-02-17 22:42:19
gsst : 0
gstd : 2791410
gssd : B4A7DADE5HH1395260286749950
gshh : r17---sn-4g57kndl.googlevideo.com

Видео
Идентификатор : 1
Формат : AVC
Формат/Информация : Advanced Video Codec
Профиль формата : [email protected]
Параметр CABAC формата : Нет
Параметр ReFrames формата : 1 кадр
Идентификатор кодека : avc1
Идентификатор кодека/Информация : Advanced Video Coding
Продолжительность : 46 м.
Битрейт : 343 Кбит/сек
Максимальный битрейт : 1482 Кбит/сек
Ширина : 480 пикселей
Высота : 360 пикселей
Соотношение сторон : 4:3
Режим частоты кадров : Постоянный
Частота кадров : 25,000 кадров/сек
Цветовое пространство : YUV
Субдискретизация насыщенности : 4:2:0
Битовая глубина : 8 бит
Тип развёртки : Прогрессивная
Бит/(Пиксели*Кадры) : 0.079
Размер потока : 114 Мбайт (78%)
Дата пометки : UTC 2014-02-17 22:42:49

Аудио
Идентификатор : 2
Формат :
Формат/Информация : Advanced Audio Codec
Профиль формата : LC
Идентификатор кодека : 40
Продолжительность : 46 м.
Вид битрейта : Переменный
Битрейт : 96,0 Кбит/сек
Максимальный битрейт : 103 Кбит/сек
Каналы : 2 канала
Расположение каналов : Front: L R
Частота : 44,1 КГц
Метод сжатия : С потерями
Размер потока : 31,9 Мбайт (22%)
Заголовок : IsoMedia File Produced by Google, 5-11-2011
Дата кодирования : UTC 2014-02-17 22:42:37
Дата пометки : UTC 2014-02-17 22:42:49

Общее
Полное имя : Містична Україна (2012 - 2013) [Hurtom]\Містична Україна. Родові прокляття.mp4
Формат : MPEG-4
Профиль формата : Base Media / Version 2
Идентификатор кодека : mp42
Размер файла : 161 Мбайт
Продолжительность : 51 м.
Режим общего битрейта : Переменный
Общий поток : 441 Кбит/сек
Дата кодирования : UTC 2014-01-19 07:55:45
Дата пометки : UTC 2014-01-19 07:55:45
gsst : 0
gstd : 3061898
gssd : B4A7DADE3HH1395260270781007
gshh : r12---sn-4g57kndl.googlevideo.com

Видео
Идентификатор : 1
Формат : AVC
Формат/Информация : Advanced Video Codec
Профиль формата : [email protected]
Параметр CABAC формата : Нет
Параметр ReFrames формата : 1 кадр
Идентификатор кодека : avc1
Идентификатор кодека/Информация : Advanced Video Coding
Продолжительность : 51 м.
Битрейт : 343 Кбит/сек
Максимальный битрейт : 1610 Кбит/сек
Ширина : 480 пикселей
Высота : 360 пикселей
Соотношение сторон : 4:3
Режим частоты кадров : Постоянный
Частота кадров : 25,000 кадров/сек
Цветовое пространство : YUV
Субдискретизация насыщенности : 4:2:0
Битовая глубина : 8 бит
Тип развёртки : Прогрессивная
Бит/(Пиксели*Кадры) : 0.079
Размер потока : 125 Мбайт (78%)
Дата пометки : UTC 2014-01-19 07:56:22

Аудио
Идентификатор : 2
Формат :
Формат/Информация : Advanced Audio Codec
Профиль формата : LC
Идентификатор кодека : 40
Продолжительность : 51 м.
Вид битрейта : Переменный
Битрейт : 96,0 Кбит/сек
Максимальный битрейт : 103 Кбит/сек
Каналы : 2 канала
Расположение каналов : Front: L R
Частота : 44,1 КГц
Метод сжатия : С потерями
Размер потока : 35,0 Мбайт (22%)
Заголовок : IsoMedia File Produced by Google, 5-11-2011
Дата кодирования : UTC 2014-01-19 07:56:04
Дата пометки : UTC 2014-01-19 07:56:22

Общее
Полное имя : Містична Україна (2012 - 2013) [Hurtom]\Містична Україна. Таємниці фортець і замків.mp4
Формат : MPEG-4
Профиль формата : Base Media / Version 2
Идентификатор кодека : mp42
Размер файла : 124 Мбайт
Продолжительность : 45 м.
Режим общего битрейта : Переменный
Общий поток : 383 Кбит/сек
Дата кодирования : UTC 2014-02-21 17:21:30
Дата пометки : UTC 2014-02-21 17:21:30
gsst : 0
gstd : 2719775
gssd : B4A7D6323HH1395260108668018
gshh : r9---sn-4g57knlz.googlevideo.com

Видео
Идентификатор : 1
Формат : AVC
Формат/Информация : Advanced Video Codec
Профиль формата : [email protected]
Параметр CABAC формата : Нет
Параметр ReFrames формата : 1 кадр
Идентификатор кодека : avc1
Идентификатор кодека/Информация : Advanced Video Coding
Продолжительность : 45 м.
Битрейт : 285 Кбит/сек
Максимальный битрейт : 1246 Кбит/сек
Ширина : 480 пикселей
Высота : 360 пикселей
Соотношение сторон : 4:3
Режим частоты кадров : Постоянный
Частота кадров : 25,000 кадров/сек
Цветовое пространство : YUV
Субдискретизация насыщенности : 4:2:0
Битовая глубина : 8 бит
Тип развёртки : Прогрессивная
Бит/(Пиксели*Кадры) : 0.066
Размер потока : 92,3 Мбайт (74%)
Дата пометки : UTC 2014-02-21 17:22:52

Аудио
Идентификатор : 2
Формат :
Формат/Информация : Advanced Audio Codec
Профиль формата : LC
Идентификатор кодека : 40
Продолжительность : 45 м.
Вид битрейта : Переменный
Битрейт : 96,0 Кбит/сек
Максимальный битрейт : 102 Кбит/сек
Каналы : 2 канала
Расположение каналов : Front: L R
Частота : 44,1 КГц
Метод сжатия : С потерями
Размер потока : 31,1 Мбайт (25%)
Заголовок : IsoMedia File Produced by Google, 5-11-2011
Дата кодирования : UTC 2014-02-21 17:22:11
Дата пометки : UTC 2014-02-21 17:22:52

Общее
Полное имя : Містична Україна (2012 - 2013) [Hurtom]\Містична Україна. Таємниця смерті. Друге життя.mp4
Формат : MPEG-4
Профиль формата : Base Media / Version 2
Идентификатор кодека : mp42
Размер файла : 125 Мбайт
Продолжительность : 45 м.
Режим общего битрейта : Переменный
Общий поток : 384 Кбит/сек
Дата кодирования : UTC 2014-02-14 16:44:00
Дата пометки : UTC 2014-02-14 16:44:00
gsst : 0
gstd : 2727531
gssd : B4A7D6301HH1395260157909425
gshh : r9---sn-4g57knls.googlevideo.com

Видео
Идентификатор : 1
Формат : AVC
Формат/Информация : Advanced Video Codec
Профиль формата : [email protected]
Параметр CABAC формата : Нет
Параметр ReFrames формата : 1 кадр
Идентификатор кодека : avc1
Идентификатор кодека/Информация : Advanced Video Coding
Продолжительность : 45 м.
Битрейт : 285 Кбит/сек
Максимальный битрейт : 1378 Кбит/сек
Ширина : 480 пикселей
Высота : 360 пикселей
Соотношение сторон : 4:3
Режим частоты кадров : Постоянный
Частота кадров : 25,000 кадров/сек
Цветовое пространство : YUV
Субдискретизация насыщенности : 4:2:0
Битовая глубина : 8 бит
Тип развёртки : Прогрессивная
Бит/(Пиксели*Кадры) : 0.066
Размер потока : 92,8 Мбайт (74%)
Дата пометки : UTC 2014-02-14 16:44:28

Аудио
Идентификатор : 2
Формат :
Формат/Информация : Advanced Audio Codec
Профиль формата : LC
Идентификатор кодека : 40
Продолжительность : 45 м.
Вид битрейта : Переменный
Битрейт : 96,0 Кбит/сек
Максимальный битрейт : 102 Кбит/сек
Каналы : 2 канала
Расположение каналов : Front: L R
Частота : 44,1 КГц
Метод сжатия : С потерями
Размер потока : 31,2 Мбайт (25%)
Заголовок : IsoMedia File Produced by Google, 5-11-2011
Дата кодирования : UTC 2014-02-14 16:44:15
Дата пометки : UTC 2014-02-14 16:44:28

Общее
Полное имя : Містична Україна (2012 - 2013) [Hurtom]\Містична Україна. Українська снігова людина.mp4
Формат : MPEG-4
Профиль формата : Base Media / Version 2
Идентификатор кодека : mp42
Размер файла : 130 Мбайт
Продолжительность : 43 м.
Режим общего битрейта : Переменный
Общий поток : 418 Кбит/сек
Дата кодирования : UTC 2014-01-19 11:20:35
Дата пометки : UTC 2014-01-19 11:20:35
gsst : 0
gstd : 2615890
gssd : B4A7D63A2HH1395260204872248
gshh : r6---sn-4g57knld.googlevideo.com

Видео
Идентификатор : 1
Формат : AVC
Формат/Информация : Advanced Video Codec
Профиль формата : [email protected]
Параметр CABAC формата : Нет
Параметр ReFrames формата : 1 кадр
Идентификатор кодека : avc1
Идентификатор кодека/Информация : Advanced Video Coding
Продолжительность : 43 м.
Битрейт : 320 Кбит/сек
Максимальный битрейт : 1450 Кбит/сек
Ширина : 480 пикселей
Высота : 360 пикселей
Соотношение сторон : 4:3
Режим частоты кадров : Постоянный
Частота кадров : 25,000 кадров/сек
Цветовое пространство : YUV
Субдискретизация насыщенности : 4:2:0
Битовая глубина : 8 бит
Тип развёртки : Прогрессивная
Бит/(Пиксели*Кадры) : 0.074
Размер потока : 99,6 Мбайт (76%)
Дата пометки : UTC 2014-01-19 11:21:00

Аудио
Идентификатор : 2
Формат :
Формат/Информация : Advanced Audio Codec
Профиль формата : LC
Идентификатор кодека : 40
Продолжительность : 43 м.
Вид битрейта : Переменный
Битрейт : 96,0 Кбит/сек
Максимальный битрейт : 103 Кбит/сек
Каналы : 2 канала
Расположение каналов : Front: L R
Частота : 44,1 КГц
Метод сжатия : С потерями
Размер потока : 29,9 Мбайт (23%)
Заголовок : IsoMedia File Produced by Google, 5-11-2011
Дата кодирования : UTC 2014-01-19 11:20:47
Дата пометки : UTC 2014-01-19 11:21:00

Общее
Полное имя : Містична Україна (2012 - 2013) [Hurtom]\Містична Україна. Характерники.mp4
Формат : MPEG-4
Профиль формата : Base Media / Version 2
Идентификатор кодека : mp42
Размер файла : 145 Мбайт
Продолжительность : 46 м.
Режим общего битрейта : Переменный
Общий поток : 440 Кбит/сек
Дата кодирования : UTC 2014-01-14 10:40:47
Дата пометки : UTC 2014-01-14 10:40:47
gsst : 0
gstd : 2764218
gssd : B4A7DAD85HH1395260253239028
gshh : r19---sn-4g57kn6y.googlevideo.com

Видео
Идентификатор : 1
Формат : AVC
Формат/Информация : Advanced Video Codec
Профиль формата : [email protected]
Параметр CABAC формата : Нет
Параметр ReFrames формата : 1 кадр
Идентификатор кодека : avc1
Идентификатор кодека/Информация : Advanced Video Coding
Продолжительность : 46 м.
Битрейт : 341 Кбит/сек
Максимальный битрейт : 1580 Кбит/сек
Ширина : 480 пикселей
Высота : 360 пикселей
Соотношение сторон : 4:3
Режим частоты кадров : Постоянный
Частота кадров : 25,000 кадров/сек
Цветовое пространство : YUV
Субдискретизация насыщенности : 4:2:0
Битовая глубина : 8 бит
Тип развёртки : Прогрессивная
Бит/(Пиксели*Кадры) : 0.079
Размер потока : 113 Мбайт (78%)
Дата пометки : UTC 2014-01-14 10:41:19

Аудио
Идентификатор : 2
Формат :
Формат/Информация : Advanced Audio Codec
Профиль формата : LC
Идентификатор кодека : 40
Продолжительность : 46 м.
Вид битрейта : Переменный
Битрейт : 96,0 Кбит/сек
Максимальный битрейт : 103 Кбит/сек
Каналы : 2 канала
Расположение каналов : Front: L R
Частота : 44,1 КГц
Метод сжатия : С потерями
Размер потока : 31,6 Мбайт (22%)
Заголовок : IsoMedia File Produced by Google, 5-11-2011
Дата кодирования : UTC 2014-01-14 10:41:03
Дата пометки : UTC 2014-01-14 10:41:19

Общее
Полное имя : Містична Україна (2012 - 2013) [Hurtom]\Містична Україна. Часові тунелі. Подорожі у часі.mp4
Формат : MPEG-4
Профиль формата : Base Media / Version 2
Идентификатор кодека : mp42
Размер файла : 114 Мбайт
Продолжительность : 41 м.
Режим общего битрейта : Переменный
Общий поток : 383 Кбит/сек
Дата кодирования : UTC 2014-01-19 11:46:15
Дата пометки : UTC 2014-01-19 11:46:15
gsst : 0
gstd : 2496145
gssd : B4A7DADE2HH1395260174293677
gshh : r7---sn-4g57kndl.googlevideo.com

Видео
Идентификатор : 1
Формат : AVC
Формат/Информация : Advanced Video Codec
Профиль формата : [email protected]
Параметр CABAC формата : Нет
Параметр ReFrames формата : 1 кадр
Параметр GOP формата : M=1, N=60
Идентификатор кодека : avc1
Идентификатор кодека/Информация : Advanced Video Coding
Продолжительность : 41 м.
Битрейт : 285 Кбит/сек
Максимальный битрейт : 1390 Кбит/сек
Ширина : 480 пикселей
Высота : 360 пикселей
Соотношение сторон : 4:3
Режим частоты кадров : Постоянный
Частота кадров : 25,000 кадров/сек
Цветовое пространство : YUV
Субдискретизация насыщенности : 4:2:0
Битовая глубина : 8 бит
Тип развёртки : Прогрессивная
Бит/(Пиксели*Кадры) : 0.066
Размер потока : 84,7 Мбайт (74%)
Дата пометки : UTC 2014-01-19 11:46:52

Аудио
Идентификатор : 2
Формат :
Формат/Информация : Advanced Audio Codec
Профиль формата : LC
Идентификатор кодека : 40
Продолжительность : 41 м.
Вид битрейта : Переменный
Битрейт : 96,0 Кбит/сек
Максимальный битрейт : 102 Кбит/сек
Каналы : 2 канала
Расположение каналов : Front: L R
Частота : 44,1 КГц
Метод сжатия : С потерями
Размер потока : 28,6 Мбайт (25%)
Заголовок : IsoMedia File Produced by Google, 5-11-2011
Дата кодирования : UTC 2014-01-19 11:46:38
Дата пометки : UTC 2014-01-19 11:46:52

Общее
Полное имя : Містична Україна (2012 - 2013) [Hurtom]\Містична Україна. Чудовиська. Передвісники біди.mp4
Формат : MPEG-4
Профиль формата : Base Media / Version 2
Идентификатор кодека : mp42
Размер файла : 125 Мбайт
Продолжительность : 41 м.
Режим общего битрейта : Переменный
Общий поток : 419 Кбит/сек
Дата кодирования : UTC 2014-01-14 03:41:16
Дата пометки : UTC 2014-01-14 03:41:16
gsst : 0
gstd : 2510308
gssd : B4A7DAD81HH1395259956298947
gshh : r1---sn-4g57kn6y.googlevideo.com

Видео
Идентификатор : 1
Формат : AVC
Формат/Информация : Advanced Video Codec
Профиль формата : [email protected]
Параметр CABAC формата : Нет
Параметр ReFrames формата : 1 кадр
Идентификатор кодека : avc1
Идентификатор кодека/Информация : Advanced Video Coding
Продолжительность : 41 м.
Битрейт : 321 Кбит/сек
Максимальный битрейт : 1769 Кбит/сек
Ширина : 480 пикселей
Высота : 360 пикселей
Соотношение сторон : 4:3
Режим частоты кадров : Постоянный
Частота кадров : 25,000 кадров/сек
Цветовое пространство : YUV
Субдискретизация насыщенности : 4:2:0
Битовая глубина : 8 бит
Тип развёртки : Прогрессивная
Бит/(Пиксели*Кадры) : 0.074
Размер потока : 96,0 Мбайт (77%)
Дата пометки : UTC 2014-01-14 03:41:34

Аудио
Идентификатор : 2
Формат :
Формат/Информация : Advanced Audio Codec
Профиль формата : LC
Идентификатор кодека : 40
Продолжительность : 41 м.
Вид битрейта : Переменный
Битрейт : 96,0 Кбит/сек
Максимальный битрейт : 102 Кбит/сек
Каналы : 2 канала
Расположение каналов : Front: L R
Частота : 44,1 КГц
Метод сжатия : С потерями
Размер потока : 28,7 Мбайт (23%)
Заголовок : IsoMedia File Produced by Google, 5-11-2011
Дата кодирования : UTC 2014-01-14 03:41:26
Дата пометки : UTC 2014-01-14 03:41:34
Скріншоти

Джерело:
Додаткова інформація: http://megatv.ua/programs/mistychna-ukrajina/
Особиста оцінка: 10 - без зайвих вагань рекомендую всім!


 Трекер:    Зареєстрований   

Завантажити / скачати фільм українською



відео для новачків



 Зареєстрований:   2014-04-28 01:57
 Розмір:   2.58 GB 
 Оцінка фільму:   9.3/10 (Голосів: 15)
   
Ваш часовий пояс: GMT + 2 Години

Нова тема   Відповісти