Завантажити та скачати торренти українською


Сергій Жадан та Собаки в Космосі - Zброя пролетаріату (2012) [WV] | Ska Punk

Нові коментарі

Нова тема   Відповісти
Автор Повідомлення
ssTAss 
Модератор музики


З нами з: 05.07.08
Востаннє: 04.12.16
Повідомлень: 10934

2014-04-27 23:01  
Сергій Жадан та Собаки в Космосі - Zброя пролетаріату (2012) [WV] | Ska Punk

Сергій Жадан та Собаки в Космосі - Zброя пролетаріату (2012) [WV] | Ska Punk


Стиль: Ska Punk
Країна, місто: Україна, Харків
Сайти: Офіційний сайт
Видавець: Жадан і Собаки
Виконавці:
Сергій Жадан - голос
Саша Болдирев - голос, гітара
Андрій Пивоваров - бас
Вєтал Бронишевський - барабани
Сергій Кулаєнко - клавіші
Артем Дмитриченков - труба
Олександр Меренчук - тромбон
а також:
Стас Кононов - гітара (1-3,6-7,9-10)
Юра Гуржи - гітара (9)
Іван Пірожок - тромбон (10)
Пісні:
    01 - Інтро
    02 - Камон, мен (2 бердичівські євреї)
    03 - Зброя пролетаріату
    04 - Радіо Харків
    05 - Берці
    06 - 300 китайців
    07 - Мудаки
    08 - Завод Шевченка
    09 - Ляшко (feat. Yuriy Gurzhy, Rotfront, Berlin)
    10 - 2 портвейна
    11 - Жінка
log
Exact Audio Copy V1.0 beta 3 from 29. August 2011

EAC extraction logfile from 2. November 2013, 16:08

Сергій Жадан та Собаки в Космосі / Zброя Пролетаріату

Used drive : HL-DT-STDVDRAM GSA-H42N Adapter: 1 ID: 0

Read mode : Secure
Utilize accurate stream : Yes
Defeat audio cache : Yes
Make use of C2 pointers : No

Read offset correction : 667
Overread into Lead-In and Lead-Out : No
Fill up missing offset samples with silence : Yes
Delete leading and trailing silent blocks : No
Null samples used in CRC calculations : Yes
Used interface : Native Win32 interface for Win NT & 2000

Used output format : Internal WAV Routines
Sample format : 44.100 Hz; 16 Bit; Stereo

TOC of the extracted CD

Track | Start | Length | Start sector | End sector
---------------------------------------------------------
1 | 0:00.00 | 1:44.34 | 0 | 7833
2 | 1:44.34 | 4:03.35 | 7834 | 26093
3 | 5:47.69 | 3:18.52 | 26094 | 40995
4 | 9:06.46 | 2:22.61 | 40996 | 51706
5 | 11:29.32 | 2:36.73 | 51707 | 63479
6 | 14:06.30 | 5:02.30 | 63480 | 86159
7 | 19:08.60 | 4:27.43 | 86160 | 106227
8 | 23:36.28 | 1:58.25 | 106228 | 115102
9 | 25:34.53 | 3:11.60 | 115103 | 129487
10 | 28:46.38 | 3:12.42 | 129488 | 143929
11 | 31:59.05 | 2:55.19 | 143930 | 157073

Range status and errors

Selected range

Filename C:\Documents and Settings\Катик\Мои документы\Мои рисунки\gadan\Сергій Жадан та Собаки в Космосі - Zброя Пролетаріату.wav

Peak level 100.0 %
Extraction speed 6.4 X
Range quality 100.0 %
Test CRC FBBE0EDC
Copy CRC FBBE0EDC
Copy OK

No errors occurred

End of st
fooCDtect
fooCDtect - foobar2000 + auCDtect, baralgin.

auCDtect: CD records authenticity detector, version 0.8.2
Copyright (c) 2004 Oleg Berngardt. All rights reserved.
Copyright (c) 2004 Alexander Djourik. All rights reserved.

mode: 0

===========================================
Track: 01 - Інтро
Quality: CDDA 100%
===========================================
Track: 02 - Камон, мен (2 бердичівські евреї)
Quality: CDDA 99%
===========================================
Track: 03 - Зброя пролетаріату
Quality: CDDA 100%
===========================================
Track: 04 - Радіо Харків
Quality: CDDA 100%
===========================================
Track: 05 - Берці
Quality: CDDA 100%
===========================================
Track: 06 - 300 китайців
Quality: CDDA 100%
===========================================
Track: 07 - Мудаки
Quality: CDDA 99%
===========================================
Track: 08 - Завод Шевченка
Quality: CDDA 100%
===========================================
Track: 09 - Ляшко
Quality: CDDA 100%
===========================================
Track: 10 - 2 портвейна
Quality: CDDA 100%
===========================================
Track: 11 - Жінка
Quality: CDDA 100%
===========================================
Тривалість: 00:34:54
Мова: українська
Аудіо-кодек: WavPack
Бітрейт: 1053 кб/с
Джерело: нетлаб
Додаткова інформація:
Робітники пекарень, фабрик, майстерень, заводська шпана з привокзальних поселень, аборигени вулиць, кварталів і спальників, гроза начальників і комунальників, вантажники з ринків, прибиральники з станцій, корейці, в'єтнамці та африканці, кожен, хто працює до сьомого поту - давай, пролетар, кінчай роботу!
Система пиляє транші й бюджети, система робить із твого дихання телесюжети, вербує активістів і продає нерухомість, система це орган, що заміщує совість, це депутати, мандати і ювілейні дати, система - це можливість ні за що не відповідати. І єдине, що має над системою владу, це булижник - зброя пролетаріату.
Ніхто не пришле тобі нормального директора, чесного ректора чи податкового інспектора. Нікого не цікавлять твої завали й стреси, приступи агресії й сезонні депресії. Нікого не хвилює, як ти повернеш кредити. В разі чого, тебе можна буде засудити і посадити. Нікого не турбують твої потреби. Тому давай, браток - все залежить від тебе!
Вчи історію.
Готуй революцію.
Лишай аудиторію.
Виходь на вулицю.


Якщо Ви справді бажаєте підтримати українське - після прослуховування, якщо музика вам сподобалась,
придбайте ліцензійний диск.
Підтримаймо вітчизняних виконавців!


Срібний реліз (на рейтинг впливає 50% завантаженого)
 Трекер:    Зареєстрований   

Завантажити / скачати українську музику



відео для новачків



 Зареєстрований:   2014-04-27 23:01
 Розмір:   268 MB 
 Оцінка музики:   7.7/10 (Голосів: 16)
   
ssTAss 
Модератор музики


З нами з: 05.07.08
Востаннє: 04.12.16
Повідомлень: 10934

2014-04-27 23:02  
Ваш часовий пояс: GMT + 2 Години

Нова тема   Відповісти