Завантажити та скачати торренти українською


Ой, хлопче / Oh Boy (2012) 720p Ger | sub Ukr / Ger

Нові коментарі

Нова тема   Відповісти
Автор Повідомлення
antusyrzhuk 
Свій


З нами з: 09.06.09
Востаннє: 19.11.16
Повідомлень: 145

2014-04-27 11:12  
Ой, хлопче / Oh Boy (2012) 720p Ger | sub Ukr / Ger

Ой, хлопче / Oh Boy (2012) 720p Ger | sub Ukr / Ger


Жанр: драма, комедія
Країна: Німеччина



Кінокомпанія: Schiwago Film, Chromosom Filmproduktion, Hessischer Rundfunk (HR)
Режисер: Ян Оле Герштер (Jan Ole Gerster)
Актори: Том Шиллінг (Tom Schilling), Андреас Шрьодерс (Andreas Schröders), Марк Хоземанн (Marc Hosemann), Фрідеріке Кемптер (Friederike Kempter), Ульріх Ньотен (Ulrich Noethen) та ін.

Сюжет:
Ця трагікомедія – самоіронічний портрет юнака, який покинув навчання в університеті і тепер блукає вулицями Берліна. Фільм розповідає про прагнення чимось / кимось бути і про те, як складно знайти місце у цьому світі.


Тривалість: 01:25:12
Якість:
Відео:
кодек:
розмір кадру: 1280 х 720
бітрейт: 8834 кб/с

Аудіо:
мова: німецька
переклад: оригінал
кодек: 5.1
бітрейт: 640 кб/с

Субтитри:
мова: українська
тип: програмні (м'які)
формат: *.srt
переклад власний

Субтитри:
мова: німецька
тип: програмні (м'які)
формат: *.srt
MediaInfo
Format : Matroska
Format version : Version 4 / Version 2
File size : 5.75 GiB
Duration : 1h 25mn
Overall bit rate : 9 667 Kbps
Movie name : Jan Ole Gerster - Oh Boy (2012)
Encoded date : UTC 2016-08-29 17:12:54
Writing application : mkvmerge v6.5.0 ('Isn't she lovely') built on Oct 20 2013 12:50:05
Writing library : libebml v1.3.0 + libmatroska v1.4.1

Video
ID : 1
Format : AVC
Format/Info : Advanced Video Codec
Format profile : [email protected]
Format settings, CABAC : Yes
Format settings, ReFrames : 9 frames
Codec ID : V_MPEG4/ISO/AVC
Duration : 1h 25mn
Bit rate : 8 834 Kbps
Width : 1 280 pixels
Height : 720 pixels
Display aspect ratio : 16:9
Frame rate mode : Constant
Frame rate : 24.000 fps
Color space : YUV
Chroma subsampling : 4:2:0
Bit depth : 8 bits
Scan type : Progressive
Bits/(Pixel*Frame) : 0.399
Stream size : 5.26 GiB (91%)
Writing library : core 133 r2334 a3ac64b
Encoding settings : cabac=1 / ref=9 / deblock=1:-3:-3 / analyse=0x3:0x113 / me=umh / subme=11 / psy=1 / psy_rd=1.10:0.00 / mixed_ref=1 / me_range=32 / chroma_me=0 / trellis=2 / 8x8dct=1 / cqm=0 / deadzone=21,11 / fast_pskip=0 / chroma_qp_offset=-2 / threads=12 / lookahead_threads=3 / sliced_threads=0 / nr=0 / decimate=0 / interlaced=0 / bluray_compat=0 / constrained_intra=0 / bframes=12 / b_pyramid=2 / b_adapt=2 / b_bias=0 / direct=3 / weightb=1 / open_gop=0 / weightp=2 / keyint=230 / keyint_min=23 / scenecut=40 / intra_refresh=0 / rc_lookahead=50 / rc=crf / mbtree=0 / crf=21.6 / qcomp=0.75 / qpmin=4 / qpmax=69 / qpstep=4 / vbv_maxrate=62500 / vbv_bufsize=78125 / crf_max=0.0 / nal_hrd=none / ip_ratio=1.40 / pb_ratio=1.20 / aq=1:0.70
Language : German
Default : Yes
Forced : No
Color primaries : BT.709
Transfer characteristics : BT.709
Matrix coefficients : BT.709

Audio
ID : 2
Format : AC-3
Format/Info : Audio Coding 3
Mode extension : CM (complete main)
Format settings, Endianness : Big
Codec ID : A_AC3
Duration : 1h 25mn
Bit rate mode : Constant
Bit rate : 640 Kbps
Channel(s) : 6 channels
Channel positions : Front: L C R, Side: L R, LFE
Sampling rate : 48.0 KHz
Bit depth : 16 bits
Compression mode : Lossy
Stream size : 390 MiB (7%)
Language : German
Default : Yes
Forced : No

Text #1
ID : 3
Format : UTF-8
Codec ID : S_TEXT/UTF8
Codec ID/Info : UTF-8 Plain Text
Language : Ukrainian
Default : Yes
Forced : No

Text #2
ID : 4
Format : UTF-8
Codec ID : S_TEXT/UTF8
Codec ID/Info : UTF-8 Plain Text
Language : German
Default : No
Forced : No
Скріншоти




Джерело:
Особиста оцінка: 10 - без зайвих вагань рекомендую всім!


Золотий реліз (завантажене не впливає на рейтинг)
 Трекер:    Зареєстрований   

Завантажити / скачати фільм українською



відео для новачків



 Зареєстрований:   2016-08-29 19:34
 Розмір:   5.75 GB 
 Оцінка фільму:   10/10 (Голосів: 1)
   
ivan vyrvyvuho 
VIP


З нами з: 19.08.12
Востаннє: 05.12.16
Повідомлень: 836

2014-04-27 12:38  
Дайте "золото" релізу!
Violator 
VIP


З нами з: 14.04.09
Востаннє: 06.12.16
Повідомлень: 567

2014-04-27 17:02  
було б прекрасно, якби ще й субтитри були німецькою... Rolleyes (1)
antusyrzhuk 
Свій


З нами з: 09.06.09
Востаннє: 19.11.16
Повідомлень: 145

2014-04-27 18:38  
можете завантажити німецькі субтитри тут
NextDayMinor 
Свій


З нами з: 14.06.13
Востаннє: 27.11.16
Повідомлень: 76

2015-02-18 17:48  
Подумуємо робити українське озвучення цього фільму.
Як гадаєте, варто?

misha_saiko 
Новенький


З нами з: 11.01.15
Востаннє: 19.06.16
Повідомлень: 1

2015-02-26 10:08  
Люди, чому так мало сідів?
Сергійопал 
Новенький


З нами з: 18.03.13
Востаннє: 06.12.16
Повідомлень: 2

2016-07-03 10:01  
Станьте хтось на роздачу будь ласка!!!
antusyrzhuk 
Свій


З нами з: 09.06.09
Востаннє: 19.11.16
Повідомлень: 145

2016-08-29 19:38  
торент було замінено
bot 
робот


З нами з: 30.09.07
Востаннє: 26.05.05
Повідомлень: 16002

2016-08-30 16:47  
Тему перенесено з Фільми в HD до форуму Фільми


11FrYkT

яфіук56н 
VIP


З нами з: 15.11.12
Востаннє: 06.12.16
Повідомлень: 339

2016-09-03 17:04  
9/10. у даний час для мене актуальна кінострічка.
головна інтрига: чи вдасться герою випити кави.

Ваш часовий пояс: GMT + 2 Години

Нова тема   Відповісти